&title=董卓討つべし (Cranky Remix)
&artist=Cranky
&first=0
&des=魏武帝
&clock_count=4
&lv_5=13+
&inote_4=
&inote_5=(160){4},{1},{4},,,
{16}4h[2:1],,,,E7/B6/B7,,,,8x,,,,,,,,
6h[2:1],,,,B4/E4/B3,,,,2x,,,,,,,,
3h[4:3],,,,,,B4/E5/A4,,B6/E6/A6,,,,7x,,,,
6h[2:1],,,,B3/B4/E4,,,,2x,,,,3bx/5bx,,,,
4h[2:1],,,,E7/B6/B7,,,,8h[2:1],,,,E3/B2/B3,,,,
3h[2:1],,,,B1/E1/B8,,,,7h[2:1],,,,B5/E5/B4,,,,
3h[4:4],,,,B4/A4,,,,A5/B5,,,,A6/B6,,,,
7h[8:1],,,,7h[8:1],,,,2-6[12:1]/7h[8:1],,,,2b/7b,,,,
3h[8:1],,5h[8:1],,3h[8:1],,5h[8:1],,4h[8:1],,6h[8:1],,4h[8:1],,6h[8:1],,
5h[8:1],,7h[8:1],,5h[8:1],,7h[8:1],,2h[8:1],,8h[8:1],,3h[8:1],,5,,
6h[8:1],,4h[8:1],,6h[8:1],,4h[8:1],,5h[8:1],,3h[8:1],,5h[8:1],,3h[8:1],,
4h[8:1],,2h[8:1],,4h[8:1],,2h[8:1],,7h[8:1],,1h[8:1],,6h[8:1],,4,,
3h[8:1],,E2/B1,,3h[8:1],,B4/B5,,3h[8:1],,6x,,3h[8:1],,8x,,
7h[8:1],,E6/B5,,7h[8:1],,B8/B1,,7h[8:1],,2x,,7h[8:1],,4x,,
56,,6,,34,,3,,56,,A7/E8,,34,,A2/E2,,
,,5hbx[12:1]/6hbx[12:1],,,2hbx[12:1]/3hbx[12:1],,,7hbx[12:1]/8hbx[12:1],,,4hbx[12:1]/5hbx[12:1],,,E2f/B1/B2/A1/A2/D2/E1,,
3h[8:1],,5,,7h[8:1],,5,,2h[8:1],,4,,8h[8:1],,6,,
1h[8:1],,3,,7h[8:1],,5,,1b/6b,,7,,3b/8b,,2,,
6h[8:1],,4,,2h[8:1],,4,,7h[8:1],,5,,1h[8:1],,3,,
8h[8:1],,6,,2h[8:1],,4,,8b/3b,,2,,6b/1b,,7,,
8hx[8:1]/2x,,1,,8hx[8:1]/6x,,7,,8hx[8:1]/3x,,2,,8hx[8:1]/6x,,7,,
8hx[8:1]/3x,,2,,1hx[8:1]/6x,,7,,8hx[8:1]/3x,,2,,1hx[8:1]/6x,,7,,
8,,18,,2,,27,,6,,36,,4,,4/5h[16:7],,
{32},,,,A6,D7,A7,D8,A8,D1,A1,D2,A2,D3,A3,D4,A4/5wb1[12:1]b,,,,,,,,5b,,,,,,,,
{16}17,,17,,17,,3,4,2,,6,5,7,,3,2,
1,,71,,71,,7-1>3[4:1],6,5,,,C/B5/B6,,,,,
46,,46,,46,,3,1,2,,6,8,7,,2,4,
3,,7,5,6,,4,3,2,,{32}A7,E7,E6,,A1,E2,E3,,,,,,
{16}28,,28,,28,,6,4,7,,3,5,2,,6,7,
8,,28,,28,,2<8-6[4:1],3,4,,,B4/C/B3,,,,,
35,,35,,4,3,4,3,6,4,6,4,7<3-1-6-4-2^7b[8:7],8,7,8,7,
,,,,,,,,,,,{24}E6,E5,E4,E3,,,
{16}1-6[12:1]/2,,,,1/2,,,,1-6[12:1]/2,,2,,1/2,,,,
1-6[12:1]/2,,2,,1-5[12:1]/2,,2-4[12:1],,1x^6[12:1],,2x,,1x,,,,
1-6[12:1]/2,,2,,12,,2,,1-6[12:1]/2,,,,12,,,,
1-6[12:1]/2,,2,,1-4[12:1]b/2,,2-6[12:1]b,,1bx^6[12:1]b,,2bx,,1bx,,,,
8-3[12:1]/7,,,,8/7,,,,8-3[12:1]/7,,7,,8/7,,,,
7/8-3[12:1],,7,,8-4[12:1]/7,,7-5[12:1],,8x^3[12:1],,7x,,8x,,,,
78,,78,,6,1,6,1,5,2,5,2,4,3,4,3,
4b,5,6,7-4-8-6[12:6]b,4b,3,2^1-5[16:5]b,,,,,,,,,,
,,,,,,,,,,,,,,,,
,A7/A6/D7/E7/B6,,,A1/A8/D1/E1/B8,,{32},{16}A2/A3/E3/B2,,,B4/A4/A5/D5/E5,,,,,,{32},
{16},,,,,{32},1bx-5[8:1]b,{16},,,,B1f,,,,,,
,,{32},Chf[6:1],{16},,,,,,,,,,{32},8bx-3^4[16:6]b*^7-4[16:6]b,,,{16},
,,,,,,,,,,,,4bxpp6[2:1]b/5bxqq3[2:1]b,,,,
,,,,,,,,,,,,,,6bx,,
6bx,,6bx<2v4[16:19]b,,,,,,,,,,,,,,
,,,,,,,,,,,,,,,,
1b/7b,,3,4,3,4,3,,2b/8b,,6,5,6,5,6,,
7h[4:1]/1,,B5,,1h[4:1],,B3,,8hbx[8:1],,2hbx[8:1],,4bx,,,,
1b/7b,,3,4,3,4,3,,2b/8b,,6,5,6,5,6,,
7h[8:1]/1,,2,,3h[8:1]/6,,5,,2bx/4bx,,3bx/5bx,,4bx/6bx,,5bx/7bx,,
3b/8b,,2,6,2,6,2,,7b/4b,,6,2,6,2,6,,
3/5h[4:1],,B1,,3h[4:1],,B7,,4hbx[8:1],,2hbx[8:1],,8bx,,,,
6b/1b,,7,3,7,3,7,,2b/5b,,3,7,3,7,3h[8:1],,
,,5hbx[12:1]/6hbx[12:1],,,2hbx[12:1]/3hbx[12:1],,,7hbx[12:1]/8hbx[12:1],,,4hbx[12:1]/5hbx[12:1],,,Chf[8:1],,
,,,6b<2v4[16:13]b,,,,,,,,,,,,,
,,,,,,{32},{18}3x,,3x,,3x,,3x,,,{32},{16},
,,6bxz2[4:1]b,,,,,,,,,,,,3bx^2-8^5[2:1]b,,
,,,,,,,,,,,,E7/B7/B6,,B2/B3/E3,,
,,,,,,,,,,{16}D7,,,,A6,,
E6,,{32}B5,,,,,B4,,,,,E4,,,A3,,,,,,,,,,,Chf[32:13],,,,{16}
,,,,,,,,,,,,6x,6x,,6bxp3[16:7]b,
,,,,,,,,,,,,{32}A1,B1,C,B5,A5,,,,
{16}
24,,24,,24,,6,5,7b,,3,4,2b,,5,6,
7b,,28,,28,,7,6,5b/4b-8[8:1],,,A7/E7/B7,,,,,
57,,57,,57,,2,4,3b,,7,5,6b,,1,3,
2b,,8,6,7b,,1,2,3b,,5b/6b,,B7/E8/B8/B2/E3/B3,,,,
24,,24,,24,,7,4,6b,,2,5,3b,,6,4,
7b,,28,,28,,7,6,5b/4b-8[8:1]b,,,A7/E7/B7,,,,,
57,,57,,4,6,4,6,3,5,3,5,2>8p2^1-4[8:7]b,4,2,4,
2b,,,,,,,,,,{32},,,,E8,B7,B6,E6,,,,,
{16}6-1[12:1],,,,2-5[12:1],,,,6-1[12:1],,6,,2-5[12:1],,,,
6-1[12:1],,6,,2-5[12:1],,2,,6bx-1[8:1]b*v3[8:1]b,,6bx,,,,,,
2-5[12:1],,2,,6-1[12:1],,6,,2-5[12:1],,,,6,,,,
2-7[12:1]b,,6-3[12:1]b,,2>5[12:1]b,,6bx,,2bx,,1b,,1b,,,,
3-8[12:1],,,,7-4[12:1],,,,3-8[12:1],,3,,7-4[12:1],,,,
3-8[12:1],,3,,7-4[12:1],,7,,3bx-8[8:1]b*v6[8:1]b,,3bx,,,,,,
1b/7b,,1b/7b,,6x,2,6,2,6x,3,6,3,6x,4,6,4,
5b,4,3,2^4-1[16:7]b,5b,6,7^8-5[16:4]b,,,,,,,,,,
4h[8:1]/2,,3,,4h[8:1]/6,,5,,4h[8:1]/3,,1,,3h[8:1],,1,,
2,,8,8,2,,6,6,3x,5x,3x,5x,3x,,,,
5h[8:1]/7,,6,,5h[8:1]/3,,4,,5h[8:1]/6,,8,,6h[8:1],,8,,
7,,1,1,7,,3,3,6x,4x,6x,4x,6x,,,,
4h[8:1]/2,,3,,4h[8:1]/6,,5,,4h[8:1]/3,,1,,3h[8:1],,1,,
2,,8,8,2,,6,6,3x,5x,3x,5x,3x,,,,
5h[32:1]/7h[32:1],,5h[32:1]/7h[32:1],,4h[32:1]/2h[32:1],,4h[32:1]/2h[32:1],,3bx,3bx,5bx,5bx,7bx,7bx,1bx,1bx,
,,3hbx[12:1]/4hbx[12:1],,,5hbx[12:1]/6hbx[12:1],,,7hbx[12:1]/8hbx[12:1],,,1hbx[12:1]/2hbx[12:1],,,A3/A4/D4/E4/B3/B4,,
{32}A6/A5/D6/E6/B6f/B5,,,,{16}3,4,3,4,3,,2b/8b,,6,5,6,5,6,,
7h[4:1]/1,,B5,,1h[4:1],,B3,,8hb[8:1],,2hb[8:1],,4b,,,,
1b/7b,,3,4,3,4,3,,2b/8b,,6,5,6,5,6,,
7h[8:1]/1,,2,,3h[8:1]/6,,5,,2bx/4bx,,3bx/5bx,,4bx/6bx,,5bx/7bx,,
3b/8b,,2b,6,2,6,2,,7b/4b,,6b,2,6,2,6,,
3/5h[4:1],,B1,,3h[4:1],,B7,,4hb[8:1],,2hb[8:1],,8b,,,,
6b/1b,,7b,3,7,3,7,,2b/5b,,3b,7,3,7,3h[8:1],,
,,5hb[12:1]/6hb[12:1],,,2hb[12:1]/3hb[12:1],,,7hb[12:1]/8hb[12:1],,,4hb[12:1]/5hb[12:1],,,Chf[8:3],,
,,,,{32},B2/B3/B6/B7,E3/E7,D3/A3/A2/D7/A6/A7,,,,,,,,,,E
