&title=战斗!由紫
&artist=《宝可梦传说 Z-A》 OST
&first=-0.39
&des=Cinno!
&lv_5=13+
&inote_5=(128){1},,
{4}1-5[8:1],,7<4[8:1],,2qq5[2:1],,
{8}E7,B7,B8,E1,
{4}4>1[8:1],,7v4[8:1],,1qq5[2:1],,
{8}B4,B3,E3,A2,
{8}6h[4:1],,,{16}4,5,{8}3h[4:1],,,{16}6,4,
{8}7h[4:1],,,{16}2,8<4[4:1],1,,1,,2,,3,,
{8}2h[4:1],5,,{16}5,3,{8}6h[4:1],4,,{16}3,5,
{8}4h[4:1],7,,{16}8q5[4:1],,E4,,E3,,E2,,E1,,
{8}6<8[8:1],5,4>2[8:1],5,6<8[8:1],5,4h[4:1],,
{24}6,,6,4,,4,5,,5,3,,3,4,,4,2,,2,3-7[8:1],,,,,,
{8}2>4[8:1],1,8<6[8:1],1,2>4[8:1],1,8h[4:1],,
{24}2,,2,8,,8,1,,1,7,,7,8-3[8:1]*-5[8:1],,8x,,,8x,,,,,,,
{8}4qq2[8:1],5,6pp8[8:1],5,4qq2[8:1],5,6h[4:1],,
{24}3,,3,4,,4,2,,2,5,,5,3,,3,6,,6,4h[4:1],,,7,,,
{24}6b-8[8:1],,,4,,,3,,2h[8:1],,,6b<1[8:1],,,1bp4[8:1],,,,2,,,
{16}3,3b>6[16:5]*p6[16:5],
{24},,,,,,,,,,,,,,,,,5,,,,4,,,
{24}5/6h[8:1],,,4,,,3h[8:1]/5,,,6,,,5pp5[4:1],,5,,,2h[24:4],,,,,,
{24}2,,,2,4,,,5h[8:1]/3,,,2,,,1pp1[4:1],,,1,,6h[24:4],,,,,,
{24}6,,,6,8,,,7h[12:1],,8,7,,,1p3[8:1],,1,,,6h[24:4],,,,,,,
{24}5x,,,46,,,3,,3,5h[24:3],,,2-4[24:2],,4-2[24:2],,,6h[24:4],,,,,,,
{24}4x/3xh[8:1],,,5,,,6h[8:1]/4,,,3,,,2<7[8:1],,2,,,6h[24:4],,,,,,
{24}6,,,6,8,,,1h[8:1]/7,,,6,,,6>3[8:1],,,6,,2h[24:4],,,,,,
{24}2,,,2,4,,,3h[12:1],,5,3,,,6p1[8:1],,6,,,4h[24:4],,,,,,,
{24}4x,,,53,,,6,,6,4h[24:3],,,5w1[8:1],,,,,,,,,,,,
{24}1xpp5[8:3],,,,,,5,,,6,
{24},,7h[24:9],,,,,
{24}4,,,,3,,,
{24}7/2-5[8:1],,,,,,6,,,,,,8-4[8:1]/3,,,,,,2,,,1,,,
{24}8>4[8:3],,,,,5,,,,6,,,7h[4:1],,,,,,1qq5[2:1],,,2,,,3,,,,,3,
{24},,,2,,,1-4[8:1]*-6[8:1],,,,,,1,,,,,,
{24}5h[8:3],,,,,,,,,{16}4,5,
{24}3-8[8:1],,,,,4,,,,5,,,3>8[8:1],,,,,,6>3[8:1],,,,,,1<6[8:1],,,,,,4>1[8:1],,,,,,
{24}5pp2[8:3]*qq8[8:3],,,,,,,,,,,,,,,,,,
{24}1h[24:15],,,,,,8,,,,,7,,,,7,,,7b/5b,,,,,,4b/2b,,,,,,1bq5>1[2:3]/5bq1<5[2:3],,,,,,
{1},{4},,,
{8}3h[2:1],,4,,5<7[8:1],,4,,6h[2:1],,4,,2>4[8:1],,7,,
{8}1h[2:1]/8,8,7,7,6>4[8:1],,1,,
{8}5h[2:1]/2,2,3,3,4>2[8:1],,5,,
{16}6h[8:1],,4,4,3h[8:1],,5,5,6h[8:1],,4,4,3h[8:1],,5,5,
{24}3,4,3,6,5,6,2,3,2,7,6,7,1w5[8:1],,,28,,,1b/Cf,,,,,,
{24}6x-8[8:1]/5x,,,1,,,46,,,1,,,4,,6h[24:4],,,
{24}3,,,6,3,,,4/7-5[8:1],,,3,,,2/7pp4[4:1],,,3,,3h[24:4],,,,,,,3,,3,5,,5,
{24}3-1[8:1],,,8,,,35,,,7,,7v4[8:1],8,,,1,,,2,,,3,,,35,,,
{16}4>1[8:1],4,,7,6,5,4xw8[8:1],,,,4b,,,,
{24}3-1[8:1]/4,,,8,,,35,,,8,,,7h[24:3],,,1,,7,2,,,8-4[8:1],,,17,,,
{24}8,,,1-4[8:1]*-6[8:1],,2x/8x,,,1b,,,,,,,
{16}5,46,73,8b/2bpp5[4:1],
{24},,,6,,,7,,,8,,1xb<6[8:1],,,,4,,,3,,,
{16}2,2bqq5[16:5],,,,,,,,,
{32}B5,B4,B3,B2,B1,B8,B7,B6,B5/Cf,,,,,,,,
{24}2v5[8:1]/6h[12:1],1,8,,,,27,,,8,,,4h[12:1]/1>4[8:1],8,7,,,,17,6,5,,,,
{24}5v8[8:1]/3h[12:1],6,7,,,,25,,,3,,,7h[12:1]/4<7[8:1],3,2,,,,4/8,1,2,,,,
{24}3h[12:1]/6<1[8:1],5,4,,,,26,,,4,,,5<8[8:1]/1h[12:1],4,3,,,,5/8,1,2,,,,
{8}45,4-2[8:1],5-1[8:1],4-8[8:1],5-7[8:1],4,5,1x,
{24}1-4-6[4:1]/6,5,4,,,,6-3-1[4:1],7,8,,,,1-3-5[4:1],8,7,,,,5>8[4:1],6,7,,,,
{24}8-3-5[4:1],7,6,,,,5-3-1[4:1],6,7,,,,1>6[4:1],8,7,,,,
{24}6p4[24:17],7,8,,,8xb,,,,,,,,,,,,4xb>6[24:19],,,,,,,,,,,,,
{8}5,4,3,2,1xp5[8:1]*q5[8:1],82,1/Cf,,
{4}2bh[2:7]/8h[8:1],8h[8:1],7h[8:1],7h[8:1],6h[8:1],6h[8:1],6h[8:1],
{24}5,,,B6,B5,E5,4xh[8:1],,,,,,4h[8:1],,,,,,4h[8:1],,,,,,4h[8:1],,,,,,
{4}5h[8:1],5h[8:1],
{8}6,7,18,27,
{24}5/6h[8:1],,,8,,,3h[8:1]/5,,,1,,,5pp5[4:1],,5,,,2h[24:4],,,,,,,
{24}3,,3,2,,2,1,,1,8,,8,7,,7,6,,6,5,,5,46,,,
{24}4/3h[8:1],,,1,,,6h[8:1]/4,,,8,,,2-4[8:1],,,,,6,2qq5[4:1],,,7,,,
{8}6,7x,8x,1x<6[8:1],2,3,4,5b,
{24}1/2h[8:1],,,4,,,7h[8:1]/1,,,5,,,1pp3[8:1],,1,,,6h[24:4],,,,,,
{24}6,,,6,57,,,1h[8:1]/7,,,6,,,5pp7[8:1],,,5,,2h[24:4],,,,,,
{24}3,,,3,24,,,3h[12:1],,4,3,,,5p7[8:1],,5,,,2h[24:4],,,,,,,
{24}1x,,,82,,,7,,7,1h[24:3],,,6-8[24:2],,8-6b[24:2],,,2h[24:4],,,,,,,
{24}8x/7xh[8:1],,,4,,,2h[8:1]/8,,,3,,,6-8-3[8:1],,6,,,2h[24:4],,,,,,
{24}2x,,,2,13,,,5h[8:1]/3,,,8,,,2-4-7[8:1],,,2,,6h[24:4],,,,,,
{24}6x,,,6,57,,,7h[12:1],,1,7,,,2p5[8:1],,2,,,8h[24:4],,,,,,,
{24}8x,,,17,,,2,,2,8,,,1w5[8:1],,,,,,,,,,,,
