&title=リレイアウター(いよわRemix)
&artist=いよわ/稲葉曇/歌愛ユキ
&first=-1.5199989
&des=重太
&lv_5=14.0
&inote_5=(151)
{4},,,,,,,,
6h[4:1],E5,6h[4:1],B3,6h[4:1],C,
{8}6,6,5,4,
{4}3h[4:1],E6,3h[4:1],B7,3h[8:2],C,
{8}7,7,6-8-4-2[8:3],5,4,,,,,1h[4:1],,3,3h[4:1],,5,5h[8:4],,7,8z4[8:3],1h[8:3],,,,,1-5-3-8[8:5],,1,,7,7,7,7,7,,,,6x/5x,
{16}6,5,6,,3,4,3,,6,5,7,4,5,3,6h[8:1]/4h[8:1],,,,5h[8:1]/3h[8:1],,,,5-7[8:1]*v3[8:1],,5,,,,,,82,,7,1,7,,82,,1,2,8,1,8,,53,,4v6[8:1]*-2[8:1],,4,,,,,,5v7[8:1]*v3[8:1],,5,,,,,,
{16}12,,,,12,,,,8h[8:1]/3h[8:1],,,8h[8:1]/3h[8:1],,,83,,78,,,,78,,,,6h[8:1]/1h[8:1],,,6h[8:1]/1h[8:1],,,
61,,53,,,,53,,,,6h[8:1]/4h[8:1],,,6h[8:1]/4h[8:1],,,64,,
65,,54,,43,,
{32}1/8,,,,8,7,6,5,4w8[8:1],3,2,1,
{8}8,,,,71,,6h[8:1]/5h[8:1],,4h[8:1]/3h[8:1],,7v1[8:1]/5-1[8:1],,,,7h[8:1]/8h[8:1],,1h[8:1]/2h[8:1],,4-8[8:1]/2v8[8:1],,,,7h[8:1]/1h[8:1],,8h[8:1]/2h[8:1],,2-7[8:1],2,3,4,2v7[8:1],2,3,4,8/5v8[8:1]*-1[8:1],,,,7h[8:1],8,7h[8:1],8,7v4[8:1]*-3[8:1],,7,,2h[8:1],4,2h[8:1],4,2v5[8:1]*v4[8:1],,2,,6h[8:1],5,6h[8:1],5,2-6[8:1],2,3,4,2q6[8:1],2x,3xv2-8[6:1],4x,,,5xpp8[8:6],,1,1,2,2,3,3,4qq1[8:6],4,,8,8,8,7,7,6,6,5,5,4,64,53,6v1[8:1]/4-2[8:1],53,64,,1q5[8:1],2,31,,
{16}3v1[8:1],,3,4,3,,,,8p4[8:1],,7,,68,,,,5v8[8:1]*-2[8:1],,64,,5,,,,1p4[8:1],,2,,31,,2,,4v1[8:1],3,4,,5<8[8:1]/4,,,,5>2[8:1],,,,5,,,,8q5[8:1],,7,,6/8,,,,76,,7h[4:1]/6-3[8:1],,,,6qq1[8:4],,,,,,,,2,,2-6b[8:1],,2,,2b,,,,8h[8:1],,7h[8:1],,6h[8:1],,2h[8:1],,3h[8:1],,4h[8:1],,,,1s5s1b[8:4],,,,1,,,,,,,,,,2b-5[8:1],,,,8b-4[8:1]*-5[8:1],,,,8b,,,,6,,7-4[8:1],,8,,7/1-5[8:1],,,,18,,,,8-4[8:1],,7/1v3[8:1],,8,,1,,5,,6,,7,,8q1[4:1],,,,,,,,,,7/2,,7/2,,6/4,,6/4,,,,5/3,,5/3,,,,6q2[8:1],,,,4,,4p2b[8:2],,,,8,,7,,6,,
5h[8:1],1,1,,5h[8:1],2,2,,
{16}2,3,6,5,3,4,,,74,,6-8-2p6[8:4],5,6,,64,,3,,3,,4,,4,,4,5-3-8>2[8:4],4,6,5,6,,,6h[8:1],,,6h[8:1],,,6,,7-4[8:1]*v2[8:1],,7,,,,,,1-6v8[8:2],,2,,3,,4,,4h[16:3],,,,4h[16:3],,,,6h[8:1]/5h[8:1],,,7h[8:1]/5h[8:1],,,75,,7-3-5[5:1]/5,,,,4,,4>7[16:5],,,,7,,6-1-4b[16:5],,5h[8:3],,,,,,,,,,7h[8:1]/5h[8:1],,,7h[8:1]/5h[8:1],,,75,,6,,75,,84,,3s7[8:2]/1,,2,,,,,,,,4h[8:1],6,6,,4h[8:1],6,6,,6<8[8:1]/4>2[8:1],,5,,64,,,,1<6[8:1],,2,,1-5[8:1],,2,,1>4[8:1],,,,1,,,,74,,6<8-4[8:3],5,6,,64,,2h[16:1],,2h[16:1],,3-7[8:1]*-1[8:1],,3,,,,,,,,1p8[8:2]/7,,8,,7,,6,,5,,5h[16:3]/8h[16:3],,,,5h[16:3]/8h[16:3],,,,6h[8:1],,,6h[8:1]/8h[8:1],,,86,,8h[16:3]/1h[16:3],,,,8h[16:3]/1h[16:3],,,,2h[8:1],,,2h[8:1]/8h[8:1],,,82,,7h[16:3]/5,,,,7h[16:3]/5,,,,6h[8:1]/5h[8:1],,,5h[8:1]/4h[8:1],,,4-2[8:1]/3,,5-1[8:1],,4-8[8:1],,5-7[8:1],,4z8>1s5[8:3],,5,,,,,,,,,,,,
{4}A7,,B8,,B1,,A2,,A1,,D1,,A8,,
{16}E7,E6,E5,E4,E3,,,,
{2}A6,A5,B5,B4,A4,A3,
{4}5<2[8:3]/4h[8:4],,,
{16}1,3,1,3,1,2,8,2,1,2,1,2,8,2,8,1,7,5,7,5,7,4,5,4,5,3,5,4,6,4,6,2,4,2,4,3,4,3,4,3,5,4,5,1,7,1,7,1,8,2,8,2,8,1,6,1,7,5,7,5,6,5,6,4,
7h[16:1],5h[16:1],6h[16:1],5h[16:1],6h[16:1],4h[16:1],8h[16:1],4h[16:1],7h[16:1],1h[16:1],7h[16:1],1h[16:1],6h[16:1],8h[16:1],6h[16:1],1h[16:1],7h[16:1],1h[16:1],6h[16:1],5h[16:1],6h[16:1],5h[16:1],7h[16:1],4h[16:1],7h[16:1],4h[16:1],6h[16:1],5h[16:1],6h[16:1],5h[16:1],7h[16:1],5h[16:1],6h[16:1],4h,5,3h[16:1],5h[16:1],4h,6,5h,3h[16:1],4,5h,4h[16:1],5,4h,5h[16:1],4,5,5,6,6,7,7,8,8,1,1,2,2,3,3,4,4,5-8-3[4:2],,,,
{8},,4,4,4-2-5-1[4:3],,,6,6,6,7,7,7<4[8:1],8,7qq4[8:3],,,,,,,2h[8:2],,3h[8:2],,4,,5,6-3[8:1],7h[8:5],6v1[8:1],,6,,8,1,2z6<7s3[8:4],3,,,,,,Ch[4:1],,,82,8,
{32}2,,,,8,7,6,5,1,2,3,4,5,6,,,8,7,6,5,4,3,,,1,8,7,6,5,4,,,7-3[8:1],,,,7,,,,,,,,,,,,,,,,,,,,
{4}1,3,5,7,2,4,6,8,
{32}E1,,,,,,,,
(110)
{4}B2,
(130)E5,
(90)D7,
(70)E6,
(58)E5,
{64}E4f,,,,,,,,,,,,,,,,,,,
(151){8}8,1>4[8:1],2,
{16}1-5[8:1],,6,,1,,6,,6,5,2,3,7,6,,,1q5[8:1]/8,,8,,1>4[8:1]/8,,8,,8-4[8:1]/1,,7-4[8:1],,,,,,3,3,4h[8:1],,2,2,4q5[8:2],,1,,2,,3,,4,,74,,6<1[8:1],5,6,,6-4-8[8:3]/4,,3,,3,,2,,2,,2h[16:3],,,,2h[16:3]/4h[16:3],,,,24,,,,5-1[8:1]/3,,64,,75,,,,8-2-7[3:1],,8,,,,4,,4>1[8:1],,4,,4<7[8:1],,,,4-8[8:1],,,,4w8[8:1],,,,4,,,,8,,71,,62,,5/3q4[4:1],,4,,,,,,,,64,,7,5,6-1-5[8:2],4,5,3,,,2h[16:1],,2h[16:1],,3h[16:1],,5<8[8:1]/3,,6,,5>2[8:1],,4,,5-1[8:1],,,,,,,,2,1,2,,83,,83,,7-4-8[8:2],6,2,3,,,,,1>4[8:1],,8-4[8:1],1,1,,,,3-6[8:1],,2,,1,,8,,7h[16:3]/8v3[8:1],,,,7h[16:3]/8,,,,1h[8:1],,,1h[8:1]/7h[8:1],,,17,,4h[16:3]/2h[16:3],,,,3h[16:3]/4h[16:3],,,,5h[8:1],,2-8[8:1],5h[8:1],,,5,,6h[16:3],,,,8h[16:3]/6h[16:3],,,,1h[8:1]/5h[8:1],,,6h[8:1]/2h[8:1],,,73,,8b/4,,7b/3,,6b/2,,5b/1,,8/4b,,
{48}8x<8-6-4-2-8[4:6],1x,2x,3x/4x,5x,6x,7x,8x,,,,,
{4},,,,,,
{8},7h[8:1]/5h[8:1],,6h[8:1]/4h[8:1],,7-1[8:1]/5v2[8:1],,7/5b,,1h[8:1]/2h[8:1],,8h[8:1]/3h[8:1],,1-5[8:1],1,2,3,1q5[8:1],1,2,3,5-7[8:1]/4v1[8:1],,5b/4,,8h[8:1],2,8h[8:1],2,1-6[8:1]*-5[8:1],,1b,,6h[8:1],5,6h[8:1],5,7-5[8:1]/4q8[8:1],,7b/4,,7h[8:1],1,7h[8:1],1,1v4[8:1],1-6[8:1],1,1,4,
{32}4-7[8:1],3,2,1,8,,,,
{8},,7,1h[8:1],7,1h[8:1],7,3h[8:1],7,3h[8:1],7,5h[8:1],7,5h[8:1],7,64,64,3-8[8:1]/5-1[8:1],,5b/3,,7h[8:1]/1,,7h[8:1]/1,,2h[8:1]/5,,2h[8:1]/5,,6,6-1[8:1],5,4v7[8:1]*-2[8:1],,,,,8p4[8:1],1,8,,6-8[8:1]/5,6-3[8:1]/5,,,,1p5[8:1],2,3,4,,B2/E3/B3,,4w8[8:1],53,4,,7b-3[8:1]/1b-3[8:1],71,71,A3,
