&title=梅に鶯
&artist=r-906 feat.琴葉 茜・葵
&first=0
&des=SepTunE feat.紫毛
&lv_5=13
&inote_5=(140)
{4},,,,
{8}
6h[4:5]/1<2b[1:1],,,,,,,,,,,1bx/2b,,3bx/8b,,4b/7bx,
5/6,7,1/8,2,4/3-5[8:1],,6,7,8/1,2,4h[8:1]/3-5[8:1],2,,7,6,5,
4/3,2,8/1,7,5/6-4[8:1],,3,2,1/8,7,5h[8:1]/6-4[8:1],7,,2,3,4,
5/6,7,1/8,2,4/3-5[8:1],,6,7,8/1,2,4/3-1[8:1],2,4-6[8:1],5,3,2,
1/7,6,4/5,3,8/2-8[8:1],,7,6,5/4,3,8h[8:1]/2-8[8:1],3,,5,6,7,
8/2,3,5/4,6,1/7-1[8:1],,2,3,4/5,6,1h[8:1]/7-1[8:1],6,,4,3,2,
1/7,6,4/5,3,2/8-2[8:1],,2,3,4/5,6,7h[8:1]/1-7[8:1],2,,5,6,7,
8/2,3,5/4,6,7/1-7[8:1],,7,6,5/4,3,2h[8:1]/8-2[8:1],7,,4,3,2,
{16}1/B5,,,,4/B6,,4,,3/B7,,,4,B8,,3,,B5,,2,,B6,,1,,2/B7,,3,,4/B8,,3,,
{8}2/5,,7qq8[8:3],6,,,3qq4[8:3],2,,,7qq8[8:3],6,,3qq4[8:3],,3,
,5>6[8:5],,,,,,,C,,5h[4:1]/2>4[8:1],1,,,4h[4:1]/7<5[8:1],8,
{16},,,,5/B2,,,,6/B3,,,7,B4,,8,,{8}4,B8,3,B7,2,B6,1v8[8:1],B5,
{16},,,,6/B3,,6,,7/B2,,,5,B1,,6,,B4,,7,,B3,,8,,7/B2,,6,,5/B1,,6,,
{8}7/1,,7-5[12:1],4v6[8:1],,,3-1[12:1],8v2[8:1],,,6-4[12:1],3v5[8:1],,,2-8[12:1],7v1[8:1],
,5>5[8:5],,,,,,,,1pp8[8:3],2,,,5pp4>5[2:3],6,1xh[8:11],
,,,,,,,,,,,2h[8:5],,,,,5>6[8:9],,,,,,,,,,,,,,,,
1b-5[8:1],,1/6-8[8:1],,6/4-2[8:1],,4/5qq7[8:3],,5/C,,1,1,8,2,3/C,4,
7-5[8:1],,7/3-5[8:1],,3/8-4[8:1],,8/2V86[4:1],,6V42[4:1],,C,,7,8,1/C,,
6b-4[8:1],,6/2-8[8:1],,2/7-3[8:1],,7/1qq4[8:3],,1/C,,6,6,5,6,7/C,8,
2-6[8:1],,2/7-5[8:1],,7/3-5[8:1],,3/8V24[4:1],,4V68[4:1],,C,,2,1,8/C,,
7b-3[8:1],,7/2-8[8:1],,2/4-6[8:1],,4/3pp1[8:3],,3/C,,8,8,2,7,6/C,5,
1-3[8:1],,1/5-7[8:1],,5/8-4[8:1],,8/6V82[4:1],,2V46[4:1],,C,,1,8,7/C,,
2b-4[8:1],,2/6-8[8:1],,6/1-5[8:1],,1/7qq4[8:3],,7/C,,3,3,6,1,2/C,3,
6-2[8:1],,6/1-3[8:1],,1/5-7[8:1],,5/8>3[16:3],,4V28[16:3],,C,,6h[4:1],,C,,
8b-4b[8:1],,8/3-1[8:1],,3/5-7b[8:1],,5/4p1[8:3],,4-7b[8:1],,4,,8-6b[8:1],7,8-2[8:1],1,
6/8-4b[8:1],,8V62[16:3],1,6/8-4b[8:1],,8V63[16:3],1,6/8-4b[8:1],,8V62[16:3],1,6/8-4b[8:1],,8,,
3b-5[8:1],,3/7-1b[8:1],,7/2-6[8:1],,2/8qq5b[8:3],,4>1[8:1],,4,,8-3[8:1]/4-8b[8:1],,8<5b[8:1]/4>1[8:1],,
8/4-8b[8:1],,8<5b[8:1]/4>1[8:1],2,8-4[8:1]/4,,8<5b[8:1]/4>1[8:1],,8/4-8b[8:1],,8<5b[8:1]/4>1[8:1],2,8-4[8:1]/4,,8/4,,
7b-3b[8:1],,7/2-8[8:1],,2/4-6b[8:1],,4/3pp1[8:3],,8<5b[8:1],,8,,3/6,7,3-5[8:1]/6-8b[8:1],2,
6/3v6[8:1],,6-4b[8:1]/3-1[8:1],7,3/6v3b[8:1],,3-5[8:1]/6-8b[8:1],2,6/3v6[8:1],,6-4b[8:1]/3-1[8:1],7,3/6v3b[8:1],,3/6,,
2b-4[8:1],,2/6-8b[8:1],,6/1-5[8:1],,1/7qq4b[8:3],,8>3[8:1],,8,,2/5,,1-7[8:1]/6-8b[8:1],,
1-5b[8:1],,4-2b[8:1]/1-3[8:1],,4-8[8:1],,4-6b[8:1]/7-5[8:1],,7-3b[8:1],,7/1>3-5<7-1b[8:3]*-3<5-7>1[8:3],,,,,,
8xV64[16:3],,3,2,1V35[16:3],,7,8,1-7[8:1],2-6[8:1],1-5[8:1],2-4[8:1],1,2,8,,
1V35[16:3],,6,7,8V64[16:3],,2,1,8-2[8:1],7-3[8:1],8-4[8:1],7-5[8:1],8,7,1,,
7V53[16:3],,8,1,2V46[16:3],,1,8,7x-5[8:1],3-5[8:1],7-1[8:1],3-1[8:1],7-3[8:1],3,7,,
2V46[16:3],,1,8,7V53[16:3],,8,1,2x-4[8:1],6-4[8:1],2-8[8:1],6-8[8:1],2-6-2[4:1],6,2,,
{1}8b,,,,,,,,
E
