&title=Gaowan Accelerator
&artist=THE SHAFT
&first=0
&des=Soxps VS _-GwG-_
&lv_6=14+
&inote_6=(200)
{8},,,,,,,,,,,,,,,,
B7h[8:4],B6h[8:4],B2h[8:4],B3h[8:4],,,,,E8h[8:4],E7h[8:4],E2h[8:4],E3h[8:4],,,,,E7h[8:4],B6h[8:4],E3h[8:4],B3h[8:4],,,,,D7fh[8:4],E6fh[8:4],D3fh[8:4],E4fh[8:4],,,,,
{8}7,7h[8:1],5,5h[8:1],6,6h[8:1],B2,B7,4,4h[8:1],2,2h[8:1],8,8h[8:1],B6,B3,
{8}7,7h[8:1],5,5h[8:1],6,6,3,3,81,81,72,72,
{16}8,7,6,5,{32}84,,3,,2,,1,,
{12}4,3,2,5,4,3,6,5,4,3h[4:1],,,5,6,7,6,7,8,6,,7x,,8xh[12:2],,1,2,3,2,3,4,1h[4:1],,,,,,
{8}1-5[8:1]/5h[4:1],,,,6-4[8:1]/4-8[8:1],46,,,
{16}1,2,3,4,8,7,6,5,1,,34,,34,,,,
{8}4-8[8:1]/1h[4:1],,,,{16}3,,6,5,7,,7h[8:1],,
{16}5,4,3,2,17,6,5,4,3-7[8:1]/1h[4:1],,,,,,,,
{8}6h[4:1]/8-5[8:1],,,,1-4[8:1]/4-1[8:1],14,,,
{8}8-5[8:1]/2h[4:1],,,,1-4[8:1],4,1,,
{8}6-8[8:1],6,3,4,5-1[8:1],5,8,,
{8}7-5v6-4[8:4],B2fh[8:2]/E3fh[8:3]/B3fh[8:4]/A2fh[8:5]/D3fh[8:6]/A3fh[8:6],,,,,,,
{8}5-8[8:1]*-2[8:1],,,,3-1[8:1]/7-3[8:1],37,,,
{16}5,6,7,8,4,3,2,1,5,,67,,67,,,,
{16}8-4[8:1]/5h[4:1],,8,,,,,,5-1[8:1]/6,,6,,7,,7,,
{16}8-5[8:1]/2-7[8:1],,28,,,,,,4h[16:1],,4h[16:1],,4h[16:1]/3,,4h[16:1]/2,,
{16}1-5[8:1],,1,,8,,7,,6-1[8:1],,4,,3,,,,4-8[8:1],,4,,5,,6,,7-2[8:1]/3-6[8:1],,73,,73,,,,
{16}8,,8,,8,,8,,8/A5/B5,,8/A4/B4,,8/A3/B3,,8/A2/B2,,D7fh[8:4],,E6fh[8:4],,D3fh[8:4],,E4fh[8:4],,,,,,,,,,
{8}1/7V53[4:1],,3V57[4:1],,7V53[4:1],7,3,,
{16}8,7,6,5,8,7,6,5,1/4,,1v3-8[8:4]/4,,,,,,
{16}4x-8[8:1],,,,4x,,,,1-5[8:1],,1,,7h[4:1],,,,
{16}4,,4,,64,,64,,3,,3,,6h[16:1]/2,,6h[16:1]/2,,
{16}7V53[4:1],,,,1>7[4:1],,,,7V53[4:1],,7,,1,,,,
{16}1-5[8:1],,8,,7,,6,,4-8[8:1],,3,2,1,,1,,
{16}2-6[8:1],6,2,6,2,,8,,7-3[8:1],3,7,3,7,,2,,
{16}D2fh[8:4],,B1fh[8:4],,D8fh[8:4],,B8fh[8:4],,,,,,,,,,
{16}2V46[4:1],,,,6V42[4:1],,,,2V46[4:1],,2,,6,,,,
{16}1,2,3,4,1,2,3,4,85,,8v6-1[8:4]/5,,,,,,
{16}5x-1[8:1],,,,5x,,,,8-4[8:1],,8,,6h[4:1],,,,
{16}3-1[8:1],,5,,3,,6,,7-3[8:1],8,6,8,7,,,,
{16}2-4[8:1],,2,,1h[4:1],,,,5-1[8:1],,5,,6h[4:1],,,,
{16}8-4[8:1],,7,,8,,6V48[8:3],,,,4h[8:2],,,,,,
{16}3,,3,,27,,27,,6,,6,,15,,15,,
{16}2h[16:3],,,5h[16:3],,,3h[16:4],,{24}7h[8:1],,,,62,15,4xb/8xb,,,,,,
{16}3h[8:1]/6,,,3h[8:1]/6,,,3h[8:1]/5,,,3h[8:1]/4,,,2,,2,,
{16}1-5[8:1]/8,7,6,5,4-8[8:1],,,,3,,3,,2,,2,,
{16}1/6h[8:1],,,6h[8:1],,,6-8[8:1],,,,5,,5-1[8:1],,,,
{16}1w5[8:1],,,,,,,,3/7,,,,6,4,6,4,
{16}6h[16:2],,5h[8:1],,7h[16:2],,1h[16:3],,,8h[16:3],,,{24}2,3,4,5,,,
{16}7h[4:1],,,,8,,1,,26,,5,,34,,2,,
{16}1h[8:1]/5h[8:1],,,1h[8:1]/5h[8:1],,,2h[16:4]/6,,,,3,4,5-1-3[16:5]*-1-7[32:9],,,,
{16}5,,,,,,,,7x-4[8:1]/3x-8[8:1],,,,,,,,
{16}6h[8:1]/3,,,6h[8:1]/3,,,6h[8:1]/4,,,6h[8:1]/5,,,7,,7,,
{16}8-4[8:1]/1,2,3,4,5-1[8:1],,,,6,,6,,7,,7,,
{16}3h[8:1]/8,,,3h[8:1],,,3-1[8:1],,,,4,,4-8[8:1],,,,
{16}8w4[8:1],,,,,,,,26,,,,3,4,3,4,
{16}2h[8:1],,5h[8:1],,4h[8:1],,7h[16:3],,,8h[16:3],,,{24}7,6,5,4,,,
{8}2h[4:1],,8,7,56,4,36,2,
{16}5h[8:1]/1h[8:1],,,5h[8:1]/1h[8:1],,,6h[4:1]/2,,,,7,8,1-5-7[16:5]*-5-3[32:9],,,,
{8}1,,,,8x/1x,,{16}E8fh[64:1]/E2fh[64:1],B7fh[64:1]/B2fh[64:1]/Cfh[64:1],B6fh[64:1]/B3fh[64:1],E6fh[64:1]/E4fh[64:1],
{1}5x<4[4:15],,,,
{16},,,,,,,,,,,,,,,,
{1}3h[4:3]/6h[4:3],
(105.95)
{8}A4fh[8:6],,D5fh[8:4],,A5fh[8:2],,,,
{32}D3,D4,D5,,,,,,E3,E4,E5,,,,,,D3,D4,D5,,,,,,7xb,,,,,,,,
{8}E4fh[8:6],,E5fh[8:4],,E6fh[8:2],,,,
{32}6,4,6,4,6,4,6,4,7h[16:1],,2,8,2,8,2,8,7V58[8:1]/3V52[8:1],,,,,,,,7xb/3,,,,,,,,
{8}E3fh[8:6],,Cfh[8:4],,E7fh[8:2],,,,
{32}D7,D6,D5,,,,,,E7,E6,E5,,,,,,D7,D6,D5,,,,,,7xb,,,,,,,,
{8}3-6[12:1]/7b-2[12:1],,3/7xb,,5h[16:1]/8h[16:1],7h[16:1]/4h[16:1],3h[16:1]/6h[16:1],5h[16:1]/2h[16:1],
(211.9){8}14,25,36,47,{16}58,6,7,8,15,2,3,4,
{16}7b,6,7,6,7,6,7,6,7,6,7,6,7,6,7,6,
{8}8,8h[8:1],5,5h[8:1],7,7h[8:1],4,4h[8:1],6-8[8:1],6,3-5[8:1],3,6-8[8:1],6,3,2,
{8}1,1h[8:1],4,4h[8:1],2,2h[8:1],5,5h[8:1],3-1[8:1],3,6-4[8:1],6,3-1[8:1],3,6,7,
{8}38,8,47,{24}7,6,5,{8}4h[4:1]/3,2,2,2,16,{24}1,2,3,46,,,7,6,5,4h[8:1]/3,,,2,,,46,,,7,,,38,,,8,7,6,5/3,,,2,3,4,5h[4:1]/6,,,7,,,7,,,7,,,
{8}48,3,25,{24}2,3,4,5-1[8:1]/6,,,7,,,5xb/6,,,,,,
{16}8h[8:1]/2,3,4,,3h[8:1]/8,7,6,,7h[8:1]/1,2,3,,7,5,6,4,
{8}7,7h[8:1],5,46,35,3h[8:1],{24}5,6,7,8h[8:1]/4,,,{8}3,3h[8:1],6,24,15,5h[8:1],{16}2,4,3,5,2h[8:1],,{24}5,6,7,8h[8:1]/3,,,2,3,4,5h[8:1]/6,,,6,,,4,,,6,,,
{8}7/5h[8:1],7,6/4h[8:1],6,3h[8:1]/5,5,2h[8:1]/4,4,
{8}3/5h[8:1],3,4/6h[8:1],4,7h[8:1]/5,5,8h[8:1]/6,6,
{8}5/7,4/6,3/5,2/4,4/6,3/5,2/4,2/4,
{8}1/A4/B4,1/A5/B5,1/A6/B6,1/A7/B7,{16}1,8,1,8,{32}2,3,4,5,8,7,6,5,1<3-1V75pp4[4:10],{1},,E
