&title=魔法少女とチョコレゐト
&artist=ピノキオピー/ 初音ミク
&first=0.07
&des=魔法藍星とマジデゐタ
&lv_6=13+
&inote_6=(150)
{1},
{16}
B7,,B6,,B5,,B4,,B3,,B2,,D8,A8,D1,A1,
Ch[2:1]`D2,,,,,,,,1-4[8:1]*s5[8:1],,,,,,,,
6-8[8:1],,,,5h[2:3],,,,,,,,B4`B5,,,,
,,,,B4`B5,,,,,,,,B4`B5,,,,
45,,3,,4x,,5,,6,,5,,4,,3x,,
4,,5,,6,,2x/7x,,1-4[8:1]*s5[8:1]/8,,,,1,,,,
56,,47,,7,8,,26,,38,,3,4,,25,,
43,,52,,2,1,,73,,61,,6,5,,74,,
3,5,4,5,2,5,4,5,1,5,4,5,8x-4[8:1],,8x,,
6h[4:1],,,,4,,2h[4:1],,,,4,,26,,,,
6-4[8:1],,,,3,,2-6[8:1],,,,6,,7,,8,,
3-5[8:1],,,,6,,7-3[8:1],,,,3,,2,,1,,
78,,6x,5,6,,3x,4^7[8:1],,,2x,,1x,,8x,,
7h[8:1],,5h[8:1],,3h[8:1],,1h[4:1],,,,E4,,E5,,E6,,
2-8[8:1],,,,7,,6-2[8:1],,,,2,,3,,4,,
7-1[8:1],,,,2,,3-7[8:1],,,,7,,6,,5,,
4-8[8:1]/8,,,,3,,,,2-6[8:1],,,,8,,8w4b[4:1],,
,,,,,,,,,,,,3x/7x,,,,
1xh[4:1]/5-1[8:1],,,,,,3,3,,,E3,,C,,E7,,
8xh[4:1]/4-8[8:1],,,,,,6,6,,,65,,54,,43,,
2-8[8:1],,2,,6-4[8:1],,6,,1,,1,,5xh[4:1]/1-5[8:1],,,,
,,6,,57,,3,5,4-1[8:1]*-7[8:1],,,,4,,,,
3h[8:1]/6h[8:1],,,2h[8:1]/5h[8:1],,,14,,1-5[8:1]/4-7[8:1],,,,14,,,,
6h[8:1]/3h[8:1],,,7h[8:1]/4h[8:1],,,85,,8p4[8:1]/5v2[8:1],,,,85,,,,
1-5[8:1],,,,4h[4:1],,,,6,,7,,8,,1p4^2p5[4:3]*q6^8q5[4:3],,
,,,,,,,,,,,,,,,,
E3/D3,,,,,,,,E7/D7,,,,,,,,
3,,4,,5,,6,,D4````A4````D5````A5````D6,,,,2b/7b,,,,
1h[8:1],,4^7[8:1],3,5,,1x,2x,3xv8[8:1],,,,38,,7,,
6h[8:1],,8^3[8:1],7,1,,5x,6x,7x-5[8:1]*-3[8:1],,,,7b,,,,
3^6[8:1],,2,,3/7-3[8:1],,8,,2^7[8:1]/7,,1,,5-1[8:1]/2,,6,,
7/5x^2[16:3],,,2x^7[16:3],,,7x^5[8:1],,B5/B4/E5f,,,,1x-5b[8:1],2x,3x,4x,
,,3-1[8:1]*-8[8:1],,24,,,,,,6-4-7[4:1],,57,,,,
,,1-3[8:1]*-4[8:1],,28,,,,,,7-5-8[4:1],,68,,,,
1,,1,,28,,3>6[4:1]/7,,46,,E3,E2,E1,E8,E7,,
5x-3[8:1],,5x-7[8:1],,5x-2[8:1],,5x-8[8:1],,5x-1b[8:1],,,,Cf,,,,
28,,68,,6-1-5-8[8:3],5,,4,,3,,2,2xbh[8:1],,,,
71,,31,,3-8-4-1[8:3],4,,5,,6,,7,7xbh[8:1],,,,
1-5[8:1],,6-8[8:1],,1-3[8:1],,6,,1-5[8:1],,7-4[8:1],,1,,7,,
2,,2,4,3,5,4,,7,,{24}7x/1x,6x/2x,5x/3x,{16}A4f,,,,
8h[8:1],,5^2[8:1],6,4,,8x,7x,6xv1[8:1],,,,61,,2,,
3h[8:1],,1^6[8:1],2,8,,4x,3x,2x-5[8:1]*q6[8:1],,,,2b,,,,
7-4[8:1],,8,,4,,3-8[8:1],,2,,8,,7-3[8:1],,,,
7b^2[8:1]/5b^2[8:1],,,,7b/5b,,,,1b/8b,,1x/8x,,{24}2,3,4,8,7,6,
{16}1x,,1xh[8:11],,,,4-1s5[2:1],,,,,,,,,,
,,,,6xbh[8:1],,,,5,,2,,36,,7,,
4x/8x,,4x/8xh[8:11],,,,5s1-4b[2:1],,,,,,,,,,
,,,,3xbh[8:1],,,,4,,,,E8,B8,B1,E2,
E4,,B3/B4,,E6,,B5/B6,,C,,B1,B2,,B8,B7,,
E3,,B2/B3,,E7,,B7/B6,,C,,E1,B1/B8,,,2-6[8:1],,
35,,26,,,,7-3[8:1],,46,,37,,,,2,,
3-1[8:1],,4-7[8:1],,3,,4,,8-4[8:1],,6-1[8:1],,8,,6,,
{48},,,,,,A4,D4,A3,D3,A2,,,,,,,,,A5,D6,A6,D7,A7,,,,,,,A3,D3,A2,D2,A1,,,,,,,,A6,D7,A7,D8,A8,,
{16}3xh[2:1],,,,,,,,{32}E4,E5,{16}E6,,,,,,,
6,,5x/7x,,3,,2h[8:1]/4,,{32}B2f,C,{16}B7,,,4x,,35,,
26,,{24}7,8,7,{24}8,,,{24}2,1,2,{16}1,,3,5,4,6,5,7,
1bh[1:1],,,,,,,,,,,,,,,,
6-1[8:1],,57,,,,4h[4:1],,,,1,,3,8,2,7,
1-5[8:1],,28,,,,6,,7-3[8:1],,68,,,,1,,
24,,1b^4[8:1]/5^8b[8:1],,,,5b/1,,,,26,,8,4,7,5,
6,,6-8[8:1]*v1[8:1],,75,,,,,,3-5v2[4:1],,42,,,,
,,8-6[8:1]*v5[8:1],,71,,,,,,2-4v1[4:1],,31,,,,
8,,8,,71,,6<3[4:1]/2,,53,,E7,E8,E1,E2,E3,,
4x-6[8:1],,4x-2[8:1],,4x-7[8:1],,4x-1[8:1],,4x-8b[8:1],,,,Cf,,,,
17,,26,,6-8-6[16:3],5,,6-4-6[16:3],,3,,2,2,,1,,
82,,73,,3-1-3[16:3],4,,3-5-3[16:3],,6,,7,7,,8,,
8-6[8:1],,5-2[8:1],,8-4[8:1],,5,,8-6[8:1],,3-7[8:1],,8,,3,,
5,,5,4,6,5,7,,2,,{24}8x/2x,7x/3x,6x/4x,{16}A5f,,,,
1h[8:1],,{24}7,6,5,{16}4-8[8:1]/2,,{24}1,2,3,{16}4/6-3[8:1],,,,2,,2,,
8h[8:1],,{24}2,3,4,{16}5-1[8:1]/7,,{24}8,7,6,{16}5<3[4:1]/3,,,,8b,,,,
8x-5[8:1],,7,,5,,4-1[8:1],,3,,1,,8-4[8:1],,,,
8b^3[8:1]/4b^7[8:1],,,,8bw4[8:1],,,,8b,,,,B3/Cf/B7,,,,
1xh[1:1],,,,B4`B5,,,,,,,,B4`B5,,,,
7h[1:1],,,,B5`B4,,,,,,,,B5`B4,,,,
5^2[8:1],,6,,7x,,8^5[8:1],,1,,2,,3x,,4,,
56,,3,,4,,27,,4-1[8:1]/5s1b[8:1],,45,,,,,,
7x-1[12:1],,2,,7x-5[12:1],4,,4,7x-1[12:1],2,,2,7x,,3,,
3x-5[12:1],,6,,3x-1[12:1],8,,8,3x-5[12:1],6,,6,3x,,7qq3[8:5],,
8xh[4:3],,,,,,,,,,,,,,,,
4x/5x,,3,,6,,4x-1[8:1]/5x-8[8:1],,,,E5,C,E1,,,,
