&title=アルレシャ
&artist=溟海ゾディアック
&first=0
&des=明虎
&lv_5=14+
&inote_5=(200)
{1},
{8}E7,E5,E6,3h[4:1],,,,E4,E7,E5,E6,3h[4:1],,,,4-1[2:3],E7,E5,E6,3h[4:1],,,,E4,E7,E5,E6,3h[4:1],,,,E4,E7/B7/A7,E5,E6,3h[4:1],,,,E4,E7,E5,E6,3h[4:1],,,,E4,E7/B7,E5,E6,3h[4:1],,,,E4,E7,E5,E6,3h[4:1],,,
{8}1>6[4:7]/8,,6b,,,,,,,,6>2[4:6],,,,,,,,2>7[4:6],,,,,,,,7,,,,,,8<3[4:7],{16},3,3,,{8},,,,,,,3<7[4:6],,,,,,,,7<2[4:6],,,,,,,,2,,,,8h[4:1],,,
{16}7,6q1[2:7],5pp2[2:7],,,,,,,,,,,,,,,,,,,,,,,,,,,,,,,,,,,,,,,,,,,,,,,,,,,,,,,,,,,,,,,,3^6[1:1],4,5^2[1:1],,,,,,,,,,,,,,,,,,,,,,
{8}7,,8h[4:1],,E1,,7h[4:1],,E8,1,6h[4:1],,E7,,5h[4:1],,E6,8,4h[4:1],,3,,
{8}57,6,34,,1-4[8:1],2-5[8:1],,,,,8,7,61,5,4,,42,3,65,,8-5[8:1],7-4[8:1],,,,,3,4,56,7,8,,1-4[8:1]/2,2-5[8:1]/1,,,8,7,6,,8-5[8:1]/7,7-4[8:1]/8,,,3,2,1pp5[2:1],,,,8qq4[2:1],,,,4^2[4:1],,2^8[4:1],,8^6[4:1],,6>6>1[1:2],,1b,,,,,,,,,,,,,,,,
{8}3,,56,E6,,24,B3,,71,B8,,{16}2,1,{8}3-8[8:1]/8v3[8:1],,,,6,,43,E4,,75,B6,,28,B1,,{16}7,8,{8}6-1[8:1]/1v6[8:1],,,,3,,56,5/B6,,24,B2/4,,17,1/B7,,12,1/B2,,{24}6,4,5,3,,,
{32}2b<2V46V82[1:6],B2,C,B6,,,,,{4},,,,,,,E5,,,,E6,,,,E7,,,,E8,,,,5,5,5,
{8}5,4h[16:1],5,,5,,5,4,{16}56,4,3,2,1b^4[8:1],,,,18,,,,6,,5,,4-8[8:1]/7,,,,{8}3-7[8:1],,2,,{16}4,5,6,7,8^5[8:1],,,,81,,,,3,,4,,5-1[8:1]/2,,,,{8}6-2[8:1],7,8^5[8:1],,8^3[8:1],,8w4[8:1],,,,
{4}2V84[4:1]/6V84[4:1],26,,{8}3,3,7-4-1[4:1]/5V38[4:1],,57,,,,2<4[2:1],3,4<2[2:1],,,,,,3,3-7[8:1],,,,,
{16}6,5,6,,1,8,1w5[2:5],{32}B8,C/E2,B4/E3,A4f,,,,,,,,,,,,,,,,,,,,,,,,,,,,,,,,,,,,,,,,,,,,,,,,,,,,,,,,,,,,,,,,,,,,,,,,,,,,,,,,,,,,,,,,,,,,,,,
{8}6,5,4,3,E4,,6,5,4,3,E5,,6,5,4,3,E6,,6,5,4,3,
{32}8,7,6,5,4,3,2,1,
{8}8-3[8:1]*-5[8:1]/Cf,,,,17,2-6[8:1]/6,35,4h[4:1],,7,18,12,{16}3,4,5,4,5,4,3,,{8}2-6[8:1],6,7,8,1-5[8:1],5,4,3,2-5[8:1],4,26,8,7-4[8:1],5,73,1,{16}8,1,2,3,4,5,6,7,{8}3,4,5v4[8:1],6,,2,18,78,{16}6,5,4,5,4,5,6,,{8}7-3[8:1],3,2,1,8-4[8:1],4,5,{16}6,5,6,,3,4,3^8[8:1],,,,
{16}7,6,5,4,3,2,1,8,{8}7b/4w8[8:1],,,,2,3,4V68[8:1]/5,4/5V71[8:1],,,,C,{16}2,3,4,5,6,7,8,1,{8}2/5w1[8:1],,,,7,6,5V31[8:1]/4,5/4V28[8:1],,,,C,{16}6,5,4,3,2,14,38,27,1-5[8:1]/6,,,,{8}7-4[8:1],7-2[8:1],,,,6p1[8:1],5,4,2,3q8[8:1],,,5w1[8:1],,5b<4[2:1],,,,,6,7,8,,4,3,2,{16}14,25,36,47,58,6,7,8,1/4V28[8:1],,,,5,,5,,,,6^1[8:1]*qq3[2:1],,,,6b,,,,E8,,E1,,E2,,8,7,6,5,4,3,2,1,8/5V71[8:1],,,,4,,4,,,,3^8[8:1]*pp6[2:1],,,,3b,,,,E2,,E1,,E8,,1,2,3,4,5,6,7,8,
{8}1b/5,,2<6[8:1]/4,56,,{16}3,24,15,,,,{8}8/4,,7>3[8:1]/5,43,,{16}6,75,84,,,,{8}15,,7/8^3[8:1],3/4^7[8:1],,,{32}B1,C,B5,,,,,,{8}34,78,12,56,{24}1,3,2,8,6,7,4,5,3,6,2,7,4b/5b,
