&title=#1f1e33
&artist=かめりあ(EDP)
&first=0
&des=Rotifera[Contradictory]
&lv_5=14+
&inote_5=(181){4},,,,,,,,{1}7qq5<1[4:11]`3qq1>5b[4:11],
,,{4},,{16}3h[8:1]/7h[8:1],
,,4h[8:1]/6h[8:1],,,{8}1,
{48}1V35-2b[2:1]*V75-8[2:1],2x/8x,7x/3x,6x/4x,{4},,,{16},,{24},{8}7h[8:1],
{16}5,6,,,{8}2h[8:1],{16}4,3,,,{4}8h[8:1],
{48}8z4-7b[2:1]*s4-1[2:1],7x/1x,6x/2x,5x/3x,{4},,,{16},,{24},{8}1h[8:1],
{16}4,2,,,{8}8h[8:1],{16}5,7,,,{4}2h[8:1],
{48}2V47-2b[2:1]*V85-2[2:1],3x/1x,4x/8x,5x/7x,{4},,,{16},,{24},{8}8h[8:1],
{16}4,6,,,{8}1h[8:1],{16}5,3,,,{4}7h[8:1],
{48}7q4<7[2:1]*p2<7b[2:1],8x/6x,5x/1x,2x/4x,{4},,,{16},,{24},{8}1h[8:1],
{16}5,3,,,{8}8h[8:1],{16}4,6,,,1,8,1,8,
,2b-5[16:1],,,6b-2[16:1],,,1b-6[16:1],,,{8}8b,,,{1}2q4b[2:3]`6q8[2:3],
,3q5[2:1],
7q1[2:1],
{16}2h[8:1]/4h[8:1],,,3h[8:1]/5h[8:1],,,6,4,7h[8:1]/5h[8:1],,,6h[8:1]/4h[8:1],,,3,5,
1h[8:1]/4h[8:1],,,2h[8:1]/5h[8:1],,,6,3,8h[8:1]/5h[8:1],,,7h[8:1]/4h[8:1],,,3,6,
{8}4/2,2/4,3/1,1/3,8/2,2/8,1/7,7/1,
{24}8,1,2,3,4,5,1,8,7,6,5,4,{2}1w5[8:1],
{4}8bqq6[8:1],{16}1-4[16:1],,,7,,6,,5h[16:1]/3h[16:1],,,,,{8}8qq6[8:1],
1,{16}2>5[16:1],,,7,,7,,6,4,6,{8}4,
{4}8q6[8:1],{16}1>4[16:1],,,7,,6,,5h[16:1]/3h[16:1],,,,,{4}2b-7[16:1]/6b-3[16:1],
{16}2b/6b,,,8bz4[8:1],,,{8}1b,,,{4}1xpp3[8:1],
{16}8-5[16:1],,,2,,3,,4h[16:1]/6h[16:1],,,,,{8}1pp3[8:1],
8,{16}7<4[16:1],,,2,,2,,3,5,3,{8}5,
{4}1p3[8:1],{16}8<5[16:1],,,2,,3,,4h[16:1]/6h[16:1],,,,,{1}3>5[2:1]/7>5[2:1],
{4}1w5b[8:1],Cf/1-5V31[4:1]*-5V71[4:1],{8},,,,2pp4[8:1],
1,{16}8-5[16:1],,,3,,3,,4,6,4,{8}6,
{4}2pp4[8:1],{16}8<5[16:1],,,3,,3,,4h[16:1]/6h[16:1],,,,,{4}7b-2[16:1]/3b-6[16:1],
{16}7b/3b,,,1bs5[8:1],,,{8}8b,,,{4}7qq5[8:1],
{16}1>4[16:1],,,6,,,{8}7h[4:1]/5h[4:1],,,{4}2pp4[8:1],
{16}8<5[16:1],,,3,,,{8}2h[4:1]/4h[4:1],{16},,,,5h[8:1]/7h[8:1],
,,3h[8:1]/4h[8:1],,,{8}5h[8:1]/6h[8:1],{16},4h[8:1]/2h[8:1],,,6,3,{8}6,
1bs5s1b[8:3]`8bz4z8[8:3],1b/8b,,,,,,,6xh[4:1],
4,4,7xh[4:1],5,5,8xh[8:1],1,
2/8,{16}3,4,5,6,7,8,1/5,2/6,3/7,4/8,5/1,2,3,4,
{8}3xh[4:1],5,5,2xh[4:1],4,4,1xh[8:1],8,
7/1,{16}6,5,4,3,2,1,8/4,7/3,6/2,5/1,4/8,7,6,5,
{8}6xh[4:1],4,4,7xh[4:1],5,5,8xh[8:1],1,
2/8,{16}3,4,5,6,7,8,1/5,2/6,3/7,4/8,5/1,2,3,4,
{8}2xh[8:1],{16}5,4,{8}6,7xh[8:1],{16}4,5,{8}3,2xh[8:1],6,
{16}3,4,,6,{8}5,1/8,{2}8<5[8:1]/1>4[8:1],
{4}2b/7b,{8}6-8[8:1]/4-2[8:1],5,{4}4/6v4V68[16:9],{8}1h[16:1],1h[16:1],
2h[16:1],2h[16:1],3h[16:1],3h[16:1],{4}7-4[8:1]/3-8[8:1],3/7,
2/6,{8}3-1[8:1]/5-7[8:1],4,{4}5/3v5V31[16:9],{8}8h[16:1],8h[16:1],
7h[16:1],7h[16:1],6h[16:1],6h[16:1],{4}6/2,{16}1-5[8:1],8,7,6,
{4}5/1b,{16}4-8[8:1],3,2,1,{4}8/4b,{16}1-5[8:1],2,3,4,
{4}5/1b,{16}3x,5x,3x,5x,2h[8:1]/6h[8:1],,,3h[8:1]/5h[8:1],,,{8}7/1,
8-6[16:1],{16}1-5[16:1],8x,,,{8}1x/8x-4[16:1],{16}8x-6[16:1],1x,,8x,{4}1x,
{8}1-3[16:1],{16}8-4[16:1],1x,,,{8}8x/1x-5[16:1],{16}1x-3[16:1],8x,,1x,{4}8x,
{16}6h[8:1]/5h[8:1],,,3h[8:1]/4h[8:1],,,{8}2h[8:1]/8h[8:1],{16},7/5,{8}5/7,{4}4/6,
{16}3h[8:1]/4h[8:1],,,6h[8:1]/5h[8:1],,,{8}7h[8:1]/1h[8:1],{16},2/4-8[8:1],{8}2/4,,,1-3[16:1],
{16}8-4[16:1],1x,,,{8}8x/1x-5[16:1],{16}1x-3[16:1],8x,,1x,{4}8x,
{8}8-6[16:1],{16}1-5[16:1],8x,,,{8}1x/8x-4[16:1],{16}8x-6[16:1],1x,,8x,{4}1x,
{16}3h[8:1]/4h[8:1],,,6h[8:1]/5h[8:1],,,{8}7h[8:1]/1h[8:1],{16},2/4,{8}4/2,5/3,4/6-3[16:1],
{16},6b/2-7[16:1],,,2b/5-8[16:1],,,5b/1-4[16:1],,,{8}1b/7h[8:1],,,{1}6<3>6[4:27]/4z8z4[4:27],
,,,,,,{4},,{16}5h[8:1]/B1/B2/D2,
,,4h[8:1]/B7/B8/D8,,,{8}C,
{16}7-4[16:1],,,3-7[16:1],,,{8}8-3[16:1],{16},4-8[16:1],,,{8}5,5bw1[2:1],
{16},,,,,,,,,,,,,,,,2-5[16:1],
,,6-2[16:1],,,{8}1-6[16:1],{16},5-1[16:1],,,{8}4,4bw8[2:1],
{16},,,,,,,,,,,,,,,,7h[8:1]/5h[8:1],
,,6h[8:1]/4h[8:1],,,3,5,2h[8:1]/4h[8:1],,,3h[8:1]/5h[8:1],,,6,4,
8h[8:1]/5h[8:1],,,7h[8:1]/4h[8:1],,,3,6,1h[8:1]/4h[8:1],,,2h[8:1]/5h[8:1],,,6,3,
{8}5/7,5/7,6/8,6/8,1/7,1/7,2/8,8/2,
{24}1,8,7,6,5,4,8,1,2,3,4,5,{32}8,7,6,5,4,3,2,1,8z4[2:1],7,6,5,4,3,2,1,
{1}8h[2:1],
{16}6h[8:1]/4h[8:1],,,2h[8:1]/8h[8:1],,,{8}3h[8:1]/5h[8:1],{16},7h[8:1]/1h[8:1],,,{4}C,
{8}1/8bv6[8:1],7,1-4[16:1],2,{16},6x,,5h[16:1]/3h[16:1],,,,,{8}1/8qq6[8:1],
7,2>5[16:1],1,{16},7x,,6,4,6,{8}4,
1/8q6[8:1],7,1>4[16:1],2,{16},6x,,5h[16:1]/3h[16:1],,,,,{8}4/8,
8h[8:1]/4h[8:1],{16},,3/7,2/6,{8}5/1,{16}2x,5x,3x,6x,4x,7x,
{8}1xv3[8:1],2,8-5[16:1],7,{16},3x,,4h[16:1]/6h[16:1],,,,,{8}8/1pp3[8:1],
2,7<4[16:1],8,{16},2x,,3,5,3,{8}5,
{16}1<5[8:1]*pp3[8:1],8,{8}1,{16},,,,,2,4,3,5,4,{8}5,
{1}6<4[2:1]/2<4[2:1],
{4}8w4b[8:1],Cf/8-6-1-5-8[2:1],{8},4x,3x,2x,
{4}1-4-8-3-1b[2:1],{8}8x,7x,6x,5xh[16:1],{16},4xh[16:1],,,2x-6[16:1]/6x-2[16:1],
,,,,,,5x/1x,,1x/5x,,3xh[16:1]/7xh[16:1],,,,,5h[16:1]/6h[16:1],
,,3h[16:1]/4h[16:1],,,{8}1/8,{2}1>4[8:1]/8<5[8:1],
{4}2xh[8:1]/7xh[8:1],{16}6,5,,3,{8}4<7[8:1],4h[4:1],,,{4}1xh[8:1]/8xh[8:1],
{16}3,4,,6,{8}5>2[8:1],5h[4:1],,,8/7,
5/6,4/3,2/1,{16}7,8,6,1,5s1<8z4b[2:1],2,4,3,
{4}5,,,2b/6b,
{16}8/7<4[16:1],,,3,,,{8}1/2-5[16:1],{16},6,,,{4}1h[8:1]/8h[8:1],
{16}7,5,6,4,5,3,4,2,8,1,7,2,6,3,{8}5,
{16}1/2>5[16:1],,,6,,,{8}8/7-4[16:1],{16},3,,,{4}8h[8:1]/1h[8:1],
{16}2,4,3,5,4,6,5,7,1,8,2,7,3,6,{8}4,
{16}8/7-3[16:1],,,4,,,{8}1/2>5[16:1],{16},5,,,{4}8h[8:1]/7h[8:1],
{16}6,5,7,4,8,3,1,2,8,1,7,2,6,3,{8}5,
{16}1/2-6[16:1],,,5,,,{8}8/7<4[16:1],{16},4,,,{4}1h[8:1]/2h[8:1],
{16}3,4,2,5,1,6,8,7,{2}1-4[8:1]*-6[8:1],
{16}5-1[16:1],,,2-6[16:1],,,{8}7-4[16:1],{16},3-8[16:1],,,{4}5,
{16}1,5x,2,6x,3,7x,4,8x,{2}5x-1b[8:1]/1x-5b[8:1],
{16}2-6[16:1],,,7-4[16:1],,,{8}3-8[16:1],{16},5-1[16:1],,,{4}4,
{16}8,4x,7,3x,6,2x,5,1x,4-7[16:1],,,8-3[16:1],,,,,{8}7,
{16}6,4,,,{8}5/3,{16}2,4,,,5,4,5,4,
6-2[16:1],,,5-1[16:1],,,{8}4-8[16:1],{16},3-7[16:1],,,,,,,6h[8:1]/4h[8:1],
,,7,{8}8,3h[8:1]/5h[8:1],{16},2,{8}1,{16}6h[8:1]/4h[8:1],,,7,
{8}1,3h[8:1]/5h[8:1],{16},2,{8}8,{12}4,5,3,6,2,7,
{24}1,8,1,8,1,8,1,8,1,8,1,8,1,8,1,8,1,8,{4}1b,
{8}1-3[16:1],{16}8-4[16:1],1x,,,{8}8x/1x-5[16:1],{16}1x-3[16:1],8x,,1x,{4}8x,
{8}8-6[16:1],{16}1-5[16:1],8x,,,{8}1x/8x-4[16:1],{16}8x-6[16:1],1x,,8x,{4}1x,
{16}3h[8:1]/4h[8:1],,,6h[8:1]/5h[8:1],,,{8}7h[8:1]/1h[8:1],{16},2/4,{8}4/2,{4}5/3,
{16}6h[8:1]/5h[8:1],,,3h[8:1]/4h[8:1],,,{8}2h[8:1]/8h[8:1],{16},7/5-1[8:1],{8}7/5,,,8-6[16:1],
{16}1-5[16:1],8x,,,{8}1x/8x-4[16:1],{16}8x-6[16:1],1x,,8x,{4}1x,
{8}1-3[16:1],{16}8-4[16:1],1x,,,{8}8x/1x-5[16:1],{16}1x-3[16:1],8x,,1x,{4}8x,
{16}6h[8:1]/5h[8:1],,,3h[8:1]/4h[8:1],,,{8}2h[8:1]/8h[8:1],{16},7/5,{8}5/7,{16}6,4,6,4,
,5-1[16:1],,,2-6[16:1],,,8w4[16:1],,,{8}Cf/8bpp5[16:25]*qq3[16:25],
E
