&title=花一匁
&artist=ずっと真夜中でいいのに。
&first=0
&des=Zqu3ra
&des_5=
&lv_5=13+
&inote_5=(127){4},{16},,,,,,,,,,,,6,
5,,3,{8}4,{16}6,5,,3<6[16:5],{8}2qq5[16:9],,,,,,,,7,
{16}8,8h[16:19],,E6,
,,{8}B2,{16},7<1[16:11],,,,,,,,,,,,,,,,,,,{2}C,
{8}5-3[8:1],4,7-5[8:1],6,{4}2-6[8:1],8h[4:1],
{8}5-3[8:1],4,7-5[8:1],6,{4}2-6[8:1],2/8h[4:1],
{8}4-6[8:1],5,2-4[8:1],3,{4}7-3[8:1],1h[4:1],
{8}4-6[8:1],5,2-4[8:1],3,{4}7-3[8:1],7/1h[4:1],
{8}8-5[8:1],1,2-5[8:1],2,{4}4<1[16:3],4x,
{16}2,2,4,3,,6/4,,3qq4[16:3]/5pp4[16:3],,,,,,,,,{4}7<4[8:1],
7/3v8[8:1],2-7[8:1],5v8[8:1],
1>4[8:1],8h[8:1],8,{16}3,3,4,2,
{8}8,6/4,1,5/3,A6/E7,A2/E3,B5/A5,A1/B1,
{4}8<3[4:1],8/3q8[16:3],1h[8:1],{8}1,2,
{4}3v6[8:1],{16}3/8h[8:1],,,8,{4}1pp3[8:1]*qq7[8:1],1,
{8}2/8,{16}6,5,,7h[16:7],,A1/B1,,B5/A5,,,{4}2,
{8}6,{16}5,7h[16:3],,,{8}3,{16}4,2h[8:1],,,{8}5/2,4/6,
{4}8<5[8:1],4q1[8:1],{2}2v3[8:1],
{8}6/1-6[32:3],8/3,,,3/8-3[32:3],1/6,,,6<8[32:3],
5,4>2[32:3],5,{4}1v6[8:1],{8}1>5[8:1],2,
{4}1v6b[8:1],{8}1>5[8:1],2,1,8,{4}7h[4:1],
{16}4,4,,7,{8}7,{16}3,4,2,8,{8}8,{4}1s5[8:1],
1/7-3[32:3],7,{8}2/5,3,3/7,6,
5<7[32:3],4,4q8[8:1],3,{4}4/2h[8:1],{8}2-6[8:1],5/3,
{4}2/6,{8}7-3[8:1],6/4,{4}7/2h[8:1],1,
{8}3x/8x,7x/2x,1x/6x,1x/6x,2x/7x,3x/8x,1x/2x,6x/5x,
{4}2h[8:1]/7h[4:3],2q3[4:1],{8},,,,8x,
8x,{16},8bx,,,{8}3/4,2,6/5,8,
{4}1>4[8:1],{8}1<6[8:1],8,1>4[8:1],2,1/5<8[8:1],6,
5>2[8:1],4,5<8[8:1],6,5,1,2,3,
{4}4q5[4:1],4/5<4[4:1],8h[8:1],8-4[8:1],
8/2,1h[2:1],{48}A3,D4,A4,D5,A5,D6,A6,D7,A7,D8,A8,D1f,,,,,,,,,,,,,{4}8<5[8:1],
{8}8>3[8:1],1,8<5[8:1],7,8/4>1[8:1],3,
4<7[8:1],5,4>1[8:1],3,4,8,7,6,
{4}5<8[8:1],5/4q1[16:3],{8}2-5[8:1],2,{4}2,
{32}8b,7,6,5,4,3,2,1,8,7,6,5,4,3,2,1,{4}8w4[8:1],8,
{8}4>2[8:1]*<7[8:1],5,{4}4-8[8:1],{8}1<6[8:1]*>3[8:1],2,{4}1-5[8:1],
4qq2[8:1]*pp6[8:1],4,{8}8-4[8:1],8,{4}8/2,
{16}3,4,{8}2,8/7,{16}6,5,{8}7-4[8:1],4-8[8:1],7,2,
2-5[32:3],7>1[32:3],2,7,,3/4,2,1,
8<6[8:1]*>3[8:1],1,{4}8-4[8:1],8/5>2[8:1]*<7[8:1],5-1[8:1],
{16}5,,,2,{8}2qq4[2:1],8,{2}7pp4b[4:1],
{8},A6/B6,A7/B7,A8/B8,A1/B1,A2/B2,B3/A3,5h[8:1],
{16},,3,4,{8}2,{16}6,5,{8}7,3/8,{16}4,6,2,8,
{8}8b,1/2,{16}3,5,4,6,3,4,2,2,6,5,7,7,
{8}8/1-5[8:1],{32}A6,E7,,,{8}1-3[8:1],{32}A8,E8,,,{8}1-5[8:1],{32}A6,E7,,,{16}1,8xh[16:3],,,3,
5,4,6,3,5,4,6,3,5,1,7h[16:3],,2,{8}2,
4qq2[8:1]/5pp7[8:1],3/6,{48},,,,,,,,,,,,B1f,D1/D2/E8/C/E3,{4},{16},,,{48},{16}7<4[8:1],
,,8,{8}7,1,{16}2>5[8:1],,,1,{8}2,8,
{4}8qq3[2:1],8h[4:1],,8,
{8}1/5,{16}3,4,2,2,7,8,{8}5,3/6,{16}4,4,7,7,
{8}2-5[8:1],5>1[16:3],2,8<5-1[4:1],,8,,2,
{4}2h[2:1],A4,{8}A8,{16}3,5,4,6,{8}4,
{16}5/7h[8:3],,,5x,,,{8}5xqq3[16:3]*pp7[16:3],{16},,,,,,,,2h[16:3],
,,4,{8}2,8/1,{16}7h[16:3],,,5,{8}7,1h[8:1],
{16}5b,1,3,7h[16:3],,,3b,7,1,5,,,8,1,{8}7/2,
3-6[8:1]/5-2[8:1],1/7,{4}3/5,{16}7,7h[8:1],,5,7-3[8:1],1,,,7,
1,{8}1,2/8,{16}6,4,{8}5-1[8:1],2h[8:1],{4}5,
{8}6-3[8:1]/4-7[8:1],8/2,{4}4/6,{16}2,2h[8:1],,4,2-6[8:1],8,{8}3,
{16}2,8,{8}8,7/1,{16}3,3,{2}4q5[4:1],
{8}1h[8:1],{16}4,2,{8}3<6[8:1],1/2,{16}3,8,,8,,1,,,3,
4,{8}2,1/8,{16}6,5,{8}7pp4[4:1],3h[4:1],{4}7,
{8}3,3,2,1>6[16:3],,8,8,7,
{4}7-3[8:1],7/2-6[8:1],2/8V64[16:3]*V24[16:3],8,
{8}E1,E8,E7,E6,E4,E3,E2,E1,
{16}5h[8:1],,,4h[8:1]/6h[8:1],,,{8}4/6,{24}5x,4x,5x,4x,5x,4x,5x,4x,5x,4x,5x,4x,
{4}5x<8[4:1],E4,1>4[4:1],E8,
{6}5<8[4:1],{12}5x,1xh[8:1],{96},,,,,,,,,,,,,,,,{32}1,2,3,4,5,6,7,8,1,2,3,4,5,6,7,8,
{4}1p4[8:1],{8}1/5<8[8:1],6,5/2>5[8:1],1,2/1q7[8:1],8,
{4}1/4-8b[8:1],4b/6,{16}5,3,7,1h[16:3],{48}A2,D3,A3,D4,A4,D5,A5,D6,A6,D7,A7,D8,
{4}A8f/1b>4[8:1],{8}1/8q5[8:1],7,6>3[8:1],7,{4}1p4[8:1],
{8}1/8<5[8:1],7,3<6[8:1],2h[8:1],3,2,1/7,1/7,
8p4[8:1],4v7[8:1],8,2,1q5[8:1],5v2[8:1],1,8,
{32}8,7,6,5,4,3,2,1,8/2,3,4,5,6,7,8,1,{4}2w6[8:1],2b,
{8}4>2[8:1]*pp6[8:1],5,{4}4-8[8:1],{8}1<6[8:1]*>3[8:1],2,{4}1-5[8:1],
4qq2[8:1]*pp6[8:1],4,{8}8-4[8:1],8,8/2,2,
{16}3,4,{8}2,8/7,{16}6,5,{8}7<4[8:1],4-8[8:1],7,2,
3bx,4b/2b,{16}2h,6h,4h,8h,{8}8bx,1b/7b,{16}8h,4h,6h,2h,
{8}8<5[8:1]*pp2[8:1],1,{4}8-4[8:1],5>2[8:1]*<7[8:1],5-1[8:1],
{16}5,,,2,{8}2qq4b[2:1],8,{2}7pp4[4:1],
{8},A6/B6,A7/B7,A8/B8,A1/B1,A2/B2,B3/A3,5h[8:1],
{16},,3,4,{8}1/2,{16}8,8,2,4,3,5,2,6,4,8h[8:1],
,1,,2/7,,3,6,1,{8}2h[8:1],8,{16}2,6,4,8,
{1}1b/7b,
