&title=[X]
&artist=blacklolita
&first=0.1
&des=KuSA
&lv_6=13
&inote_6=(162)
{1},,
{8}
5pp1[4:4]/1,,,,4h[1:1],,,,,,,,2,,3,,2pp5[4:4]/5,,,,6h[1:1],,,,,,,,
5-1[8:1],,,,
6,6,8,8,1,1,3,3,{16}6,5,6,5,7,4,7,4,8,3,8,3,1,2,1,2,
{24}1,8,7,6,5,4,3,2,1,8,7,6,{32}1,2,3,4,5,6,7,8,1,2,3,4,5,6,7,8,
{8}1bs5[4:1],,,,{16}6,6,3,5,1b-5[8:1],,,,1/7-4[8:1],,,,3,,3-6[8:1],,,,
{8}7,7,5,6/4-8[8:1],5/3,4/2-6[8:1],,1-4[8:1]/2-5[8:1],,1/2,,
6/5-1[8:1],,8,7-3[8:1],,1,1,8,1-3[8:1]/7-5[8:1],,1-5[8:1]/7-3[8:1],,1b/7b,,,,
2-5[8:1],,6,6-3[8:1],,2,2,4,3/5-1[8:1],6/4,5v3[8:1]*v7[8:1]/7,,,,1,1,
{12}6,6,4,5,5,3,2/4,,1/8,,7/5,,{8}2V48[8:3]/6,,5-8[8:1],,5,,
1>6[8:3]/6,,8b,,8,,8,7,1/6,7/2,8p4[4:1]/3,,3,,
3,2,4/1-3[8:1],5,6-8[8:1],6,4-1[8:1],,8-5[8:1]/4,,8/2,2,
{16}
3,4,3,4,2,5,2,5,{12}1,1,1,8,1,2,{16}7v5[8:1]/3v1[8:1],,,,7/3,,,,
8v2[8:1]/4v6[8:1],,,,8/4,,,,3v2[8:1]/7v6[8:1],,,,3/7,,,,
1v4[8:1]/5v8[8:1],,1/5,,1/5,,,,
{24}8,7,6,,3,,5,,5,,5,,1,2,3,,6,,4,,4,,4,,1,8,7,,3,,5,,5,,5,,8,1,2,,6,,4,,4,,4,,
{2}8bq1[2:3]/4bq5[2:3],,,,2z6[8:5]/7s3[8:5],,
{16},,4,5,4,3/6,2/7,1/8,2-5[8:1]/7-4[8:1],,2/7,,,,,,
6,5,6,7,6,4,6,8-4[8:1],6-2[8:1],,,,,,,,3,4,3,2,3,5,3,1-5[8:1],3-7[8:1],,,,,,,,
6,5,7,4,4,5,3,4,2,5,5,1,6-1[8:1],8,7,5,6z2[16:3],,,,8h[16:3],,,,
{32}7,6,5,4,3,2,1,8,7,6,5,4,3,2,1,8,{16}7b/3b,,,
5h[16:3]/1b,,,3,4/6,,6,3/5,,3,2/5,,6,7/4,,1/2,3/8,,7-2[16:1]/8,6/1,,
3h[4:1],,,,{24}2,1,8,7,6,5,{16}1b/4-8[8:1],,,,43,,{24}1,2,3,4,,8,,8,,5,,1,,1,,
3,2,1,8,4,,4V61[6:1],,1,,1V72[6:1],,2,,2-6[8:1],,,,,,,,,,{16}4b,,,8h[16:3]/3,,,
5,7/4,,3,2/5,,4,5/1,,7,6/2,,5/4,3/6,,1-5[16:1]/8,7/2,,6h[4:1],,,,
{24}4,3,2,1,8,7,{16}6<1[8:1]*>3[8:1],,,,6,,,,8z4[16:3],,,5,,,3,,
1-3[8:1],,7-5[8:1],,1V73[4:1],,7,,1,,4,,5w1[8:1],,6,,,,,,
7v4[8:1]/3v8[8:1],,,,3/7,,,,
1h[16:1]/5h[16:1],,6h[16:1]/4h[16:1],,
2h[16:1]/5h[16:1],,3h[16:1]/7h[16:1],,
7h[16:1]/6h[16:1],,1h[16:1]/5h[16:1],,
4-8[8:1]/8-4[8:1],,,,,,,,6,6,5,5,4,4,3,3,2-6[8:1]/4-7[8:1],,,,,,,,
{12}8,8,6,1,1,3,7,7,5,4,4,2,
{16}5-8[8:1]*-7[8:1],,,,5>2[8:1]*p1[8:1],,,,5,,,,
{12}6/8,6/8,6/8,1/5,1/5,1/5,2/4,2/4,2/4,{16}3-7[8:1]/5-1[8:1],,,,
3b/5b,,,,6/4,,,,,,1/5,,1/5,,,,3/7,,3/7,,
8<5[4:1],,8,,5>1[4:1],,4,,1-4[8:1]*-6[8:1],,,,,,,,
2h[2:1]/8,,,,,,,,4-1[2:1],,,,,,,,,,6,,6,,6,,6h[2:1],,,,,,,,
5-8[2:1],,,,,,4,,4,,,,2,,2h[4:1],,,,8,,1/2,,1/2,,3h[2:1]/8,,,,
,,,,4V62[2:1],,,,,,2,,2qq5[4:3]*pp6[4:3],,,,,,,,,,,,,,,,,,,,,,,,
8h[2:1],,,,,,5,,5<4[2:1],,,,,,,,,,,,8z4[4:1]*v3[4:1],,,,,,,,,,,,
{8}
5h[8:1]/1,,5h[8:1],,6h[8:1]/4,,6h[8:1],,
7h[8:1]/3,,7h[8:1],,8h[8:1]/5,,8h[8:1],,
8/4,4,4,4,3/7,3,3,3,6/2,2,2,{16}1/5,2/6,3h[8:1]/7h[8:1],,,4h[8:1]/6h[8:1],,,4/6,,
(165)
3,5,3,5,4,6,4,6,5,7,5,7,6,8,6,8,5,7,4,6,3,5,2,4,3,1,4,8,5,7,6,5,
(172)
{24}8,1,2,3,4,5,6,7,8,1,2,3,{32}7,6,5,4,3,2,1,8,7,6,5,4,3,2,1,8,
{16}7<5[8:1]/2>4[8:1],,,,7s3[16:4]/2z6[16:4],,,,,,,,,,,,
4,5,3,3,6,5,7,4,8>3[8:1],,1/7-3[8:1],,8,,7-5[8:1],,1,,7>2[8:1],,3,,7,,
4,4,{24}8,7,6,5,4,3,2,1,8,{16}7/3,,
4>1[8:1]/8<5[8:1],,,,8v3[8:1]/4v7[8:1],,,,8/4,,,,2/6,,2/6,,
3,5,1,7,4,6,8-4[8:1]*v3[8:1],,8,,,,,,
5,4,6,6,3,4,2,5,1<6[8:1],,8/2-6[8:1],,1,,2-4[8:1],,8,,2<7[8:1],,6,,2,,
5-2[8:1],,6,,5/7,,8,,1,2,8,3,7,4,6,5,7b,7,,2/4b,2b/4,,1/8,1/8,
2h[4:1]/7,,,,{24}1,8,7,1/6,2,3,4-8[8:1]/1-5[8:1],,,,,,,,,,,,
{16}
6,5,6,5,8,1,7,2,5,3,5,3,6,4,7,5,8,6,7,1,3,2,7,5,6,2,4,3,
6,5,8,2,4-7[8:1],,1-5[8:1],,4,,1,,8-4[8:1],,2-5[8:1],,8,,2,,
6,6,3,4,2-6[8:1]/5-8[8:1],,,,2b/5b,,,,{24}7,6,5,4,3,2,
{16}1V35[16:2],,6,,1/7,,8,,1V75[16:2],,4,,1/3,,2,,1w5[8:1],,7,,1,,,,
7/3,,4/6,,2/5,,7/3,,1-6[8:1]/5,,6-2[8:1],,1,,5,,4<7[8:1],,1>4[8:1],,4-8[8:1],,1,,
7-4[8:1],,6,,7,,8,1,2-7[8:1]/6-3[8:1],,,,2b/6b,,,,4<7[8:1]/8>3[8:1],,,,4/8,,,,
8,4,7,3,6-4[8:1]/2-8[8:1],,,,6-2[8:1]/2-6[8:1],,,,,,,,
4b/5b,,,,1q7[4:1]/7<4[8:1],,,,(180)7>3[4:1]/1,,,,4p8[8:1],,,,4,,,,
2,1,3,8,4,7,5,6,4,5,3,4,2-8[8:1],,,,2-5[8:1]/6V42[4:1],,,,6/2V86[4:1],,,,
5-1[8:1],,,,5,,,,7/8,,1/6,,1/2,,3/8,,4-1[8:1]/6-3[8:1],,,,4/6,,,,
8p2[4:1]/2>5[8:1],,,,2<6[4:1]/8,,,,5q1[8:1],,,,5,,,,
7,8,6,1,5,2,4,3,5,4,6,5,7-1[8:1],,,,7-3[8:1]/3<7[4:1],,,,3/7>3[4:1],,,,
4-1[8:1],,,,4,,,,1h[16:1]/2h[16:1],,3h[16:1]/5h[16:1],,
7h[16:1]/8h[16:1],,6h[16:1]/4h[16:1],,5h[16:1]/2h[16:1],,
4h[16:1]/8h[16:1],,3/7,,,,1-5[8:1]/5,,,,1b/5<4[4:3],,,,,,,,,,,,,,,,
5h[4:3],,,,,,,,6-1[8:1],,,,,,,,
7-4[8:1],,7,,3-6[8:1],,3,,7-3[8:1],,7,,1-5[8:1],,1,,8-4[8:1],,8,,
2-6[8:1],,2,,5-1[8:1],,5,,4,,4,,3,1,3,8,2,7,2,6,1v3[8:1]/5v7[8:1],,,,,,,,
3,6,3,7,4,8,4,1v7[8:1],5v3[8:1],,,,,,,,
6,4,7,3,5,2,7,4,8,1,6,3,{32}7,6,5,4,3,2,1,8,
{4}7-4[8:1]/2-5[8:1],7s3[8:3]/2z6[8:3],
