&title=squartatrice
&artist=美樹さやか vs. 美樹さやか (fw. 美樹さやか)
&first=0
&des=美樹さやか
&lv_5=14
&inote_5=(180)
{4}
,,,,,,,,
3h[4:2]/E4,E5,E6,7h[4:2]/E2,E1,E8,
{8}
1h[8:1]/E7,,1h[4:1]/6,6,6,,2/5q3[4:1],,3-5[8:1],,,,
2h[4:2],,4,4,4,,3h[8:1],5,4h[8:1],6,5h[8:1],7,58,6,14,3,1-5[8:1],2,1V74[8:3]*V36[8:3],,1,,,,
{4}
6h[4:2]/5,4,3,2h[4:2]/7,8,1,
{8}
8h[8:1]/2,,8h[4:1]/3,3,3,,7/4p6[4:1],,6-4[8:1],,,,
7h[4:2],,5,5,5,,6h[8:1],4,5h[8:1],3,4h[8:1],2,41,3,85,6,8-4[8:1],7,8p3>1[8:3]*q5<7[8:3],,8,,,,
{8}
78,,81,,12,,28,,17,,86,,26,26,
{24}3,7,3,7,,,
{8}4V28[4:1]/8,,8V25[4:1],,5-1[8:1],,,,
2h[8:1]/8h[8:1],,28,27,26,,
3h[8:1],6,4h[8:1],7,5h[8:1],8,
{32}4bh[2:1]/8b,7,6,5h[32:13],,,,,,,,,,,,,
{16},,,,3,4,3,4,3,5,3,5,2,6,2,6,
{8}1-5[8:1],,1/6-1[8:1],,6/2-5[8:1],,26,,3-7[8:1]/7-3[8:1],,37,,
{32}26,,,,,,,,
{8}15,,1/4-8[8:1],,4/1-5[8:1],,17,,
{24}6,4,6,4,,,3/7-3-7[4:1],,,,,,
{8}71,,2-5[8:1],2,7-4[8:1],7,1-5[8:1],1,7,7,
{16}8v5[8:1],,,7,8v3>8[4:1],,,6,8<5[8:1],,,,,,,,8x,7x,6x,5x,
{32}4x/3x,2,1,8,,,,,
{8}8/7-3[8:1],,7/2-5[8:1],,2/6-1[8:1],,62,,6-2[8:1]/2-6[8:1],,62,,
{32}37,,,,,,,,
{8}84,,8/5-1[8:1],,5/8-4[8:1],,82,,
{24}3,5,3,5,,,6/2-6-2[4:1],,,,,,
{8}28,,7-4[8:1],7,2-5[8:1],2,8-4[8:1],8,1-5[8:1],1,
{16}8/1b-3[8:1],,,8,1b,,,,7,4,7,4,8,2,8,2,1,3,1,3,
{32}1b,8,7,6,1,2,3,4,5b-2-7[4:1]/6b,,,,,,,,53,,,,,,,,,,,,A8,B8,C,B4,
{8},25,34,56,78,12,
{8}2-6[8:1],1-5[8:1],2,1,,
{32}A2,B2,C,B6,,,,,
{16}75,,4,6,3,5,2-4[8:1]/4-6[8:1],,35,,2/4-8[8:1],,,,,,,,,,
{32}A7,B7,C,B3,,,,,
{8}43,24,3/5-1[8:1],46,57,8-5[8:1],8-3[8:1],8,8,,2-6-3[4:1],,2,
{12}7,7,7,5,5,5,
{32}1x,8x,7x,6x,,,,,
{16}2,4,3,,6,4,5,,3,5,3,,4,6,4,6,
{24}2,7,2,7,,,
{32}1x,2x,3x,4x,,,,,
{16}7,5,6,,3,5,4,,6,4,6,,5,3,5,3,
{24}7,2,7,2,,,
{32}8b-4[8:1]/1b-5[8:1],7x/2x,6x/3x,5x/4x,,,,,
{8}81,,,1/2-6[8:1],,28,7,7,5,5,
{16}6,4,6,4,5,3,5,3,42,,42,,2b,,2,,2b/1,,2,,2b/7,,2,,5b,2,5,1,5,,4b,7,4,8,4,,
{32}3h[8:1]/8,7,6,5,,,,,
{16}3b,4,3,2,3,,5b,4,5,6,5,,
{32}7,8,1,2,,,,,
{1}5b-8-4-1-5b[4:6],,
{1}3-6-2-7-3[4:6],,
{4}6h[4:7],B2,B1,B8,B7,B6,B5,B4,
{4}4h[4:7],E7,E8,E1,E2,E3,E4,E5,
{16}5-1[8:1]/6-1[8:1],,,,,,,,2,1,2,1,2>4[8:1],,2<7[8:1],,,,,,,,,,
{16}5,6,5,6,5-7[8:1],,5-2[8:1],,,,,,,,,,
{16}1,7,1,7,2,6,2,6,3b/5b,,4b/6b,,3,7,3,,4b/6b,,3b/5b,,8,1,8,,
{24}1,2,3,4,,,45,,,35,,,2,3,4,5,,,65,,,64,,,
{24}2,1,2,1,,,38,,,74,,,3,5,3,5,,,28,,,17,,,
{16}8b,2,8,3,8,,1b,7,1,6,1,,1>4[8:1]/8,,27,,1/8h[8:9],,,,
{32}5,6,7,,1,2,3,4,5,6,7,,1,2,3,4,5,6,7,,1,2,3,4,5,6,7,,
{64}A1,D2,A2,D3,A3,D4,A4,,
{16}6,,5,,6,,2,2,8-4[8:1],1,7-5[8:1],,8,,7,,3h[8:1],,6,3,5,3,4,,8,7,1,6,2,5,3,4,
{16}2-6[8:1],,5,,2,,7,7,5,6,4,,35,,35,,7h[8:1],,8,7,1,7,2,,7,1,7,,8x/2x,7,6,5,
{32}4/3b,2,1,8h[8:1],,,,,4b,3,2,1h[8:1],,,,,{16}2,1,2,,38,,47,,
{16}6h[32:1],5h[32:1],6h[32:1],5h[32:1],4/7-5[8:1],3,2,1,
{24}7-3[8:1]/8x,,,,,,72,,,,,,
{16}2>5[8:1],,1,,2/7<4[8:1],,8,,2-6[8:1]/7,,1,,28,,7,,5-2[8:1],6,,6,5,,7,,1,8,,8,
{24}1z5[8:1]*s5[8:1],,,4x/6x,3x/7x,8x/2x,1x,,,,,,
{16}2,,7,7,1-5[8:1],8,2-4[8:1],,1,,2,,6h[8:1],,3,6,4,6,5,,1,2,8,3,7,4,6,5,
{16}7-3[8:1],,4,,7,,2,2,4,3,5,,64,,64,,2h[8:1],,1,2,8,2,7,,2,8,2,,1x/7x,2,3,4,
{16}5/6b,7,8,1h[8:1],,,5b,6,7,8h[8:1],,,
{24}4,5,6,7h[8:1],,,
{16}1,7,1,8,1,7,1,8,1,7,1,8,
{32}1b,2,3,4,7b,,,,
{16}2-5[8:1],8,,8,2,,7,,4,5,3,6,2,7,18,,7-4[8:1],1,,1,7,,,,3,5,,5,
{64}3x,E3,2x,E2,1x,E1,8x,E8,7x,E7,6x,E6,5x,E5,4x,E4,
{16}3x-1[8:1],,,,53,,7-5[8:1],,,,71,,2-4[8:1],,,,82,,6-8[8:1],,,,64,,
{24}2,3,4,8,7,6,
{16}5x/1x,,,,
{16}6x-1[8:1],,,,46,,2-5[8:1],,,,28,,7-4[8:1],,,,17,,3-8[8:1],,,,35,,
{24}7,6,5,1,2,3,
{16}4x/8x,,,,78,,78,,76,,76,,65,,65,,45,,45,,
{24}3,6,3,6,2,7,2,7,1,8,1,8,1-5[8:1],2,3,8,7,6,1b,,,,,,
{8}64,6,6,35,3,3,45,45,2b/8b,3b/4b,1b/7b,6b/5b,
{24}3b,4,5,6b,7,8,3b,4,5,6b,7,8,1b-7-2-6-3-5>4-6-3-7-2-8[8:28],,,,,,
{4},,,,,,,,,,,,,,,
{16}1,,7h[8:1],,2,,
{24}6,3,6,3>8[8:1],,,2,,,7,,,6,,,
{16}6h[8:1],,7,,6h[8:1],,5,,6h[8:1],,4,,6h[8:1],,3,,2h[8:1],,6,,2h[8:1],,7,,2h[8:1],,8,,2h[8:1],,1,,3,,4,,3,,4,,6,,5,,6,,5,,
{8}85,7,6,5,74,6,5,4,63,5,4,3,52,4,3,2,
{32}8b/1bp5>4p8>1[4:11],7,6,5,,,,,
