&title=Magia
&artist=Kalafina
&first=0
&des=Dororo
&lv_5=13
&inote_5=(125){1},
{16}
,,,,{24}1h[128:1],8h[128:1],1h[128:1],8h[96:1],1h[96:1],8h[96:1],1h[64:1],8h[64:1],1h[64:1],8h[48:1],1h[48:1],8h[48:1],1h[32:1],8h[32:1],1h[32:1],8h[24:1],1h[24:1],8h[24:1],
{16}1b>8[8:3],,6,,6h[2:1],,,,,,,,1-5[8:1],,,,
6pp3[2:1],,,,4,,4,,,,2,,2,,,,
8<1[8:3],,3,,3h[2:1],,,,,,,,8-4[8:1],,,,
2s6[4:1]*z6[4:1],,,,,,,,,,4,5,3,6,2,7,
1h[4:1],,,,8,,7-3[8:1],,,,3,,2h[4:1],,,,
6h[4:1],,4,,5,,3h[4:1],,5pp5[4:1],,4,,,,,,
2h[4:1],,,,5,,4^7[8:1],,,,2,,1h[4:1],,,,
8V62[4:1],,,2,,,4,,4V26[4:1],,,6,,,8,,
8h[4:1],,,,1,,2-7[8:1],,,,7,,6h[4:1],,,,
2h[4:1],,5,,4,,7h[4:1],,4qq5[4:1],,5,,,,,,
6h[4:1],,,,5,,3V51[4:1],,,,5,,7h[4:1],,,,
2-5[8:1],,,1,2,,8,,7-4[8:1],,,8,7,,1,,
2h[4:1],,4,,3-5[8:1],,6,,6h[4:1],,,,4h[4:1],,2,,
3-5[8:1],,2,,2h[4:1],,,,7,,6,,45,,3,,
2h[8:3],,,,1-5[8:1],,8h[8:3],,,,,,4<2[4:1],,3h[8:3],,
,,,,,,34,,3-8[8:1]/4-7[8:1],,,,34,,,,
7h[4:1],,5,,6-4[8:1],,3,,3h[4:1],,,,5h[4:1],,7,,
6-4[8:1],,7,,7h[4:1],,,,2,,3,,54,,6,,
7h[4:1],,,,5v4[8:1]*v6[8:1],,4^7[8:1]/6^3[8:1],,,,,,,,28,,
2b/8b,,2h[4:1],4b,6h[8:1],,,,1b/7b,,7h[4:1],5b,3h[8:1],,,,
3-7[8:1]/7-3[8:1],,,,,,,,45,,3,6,4,5,2,7,
1-6[8:1],,2,,5-1[8:1]*qq4[8:1],,,,5^8[8:1],,,,2q6[8:1],,1,,
8h[4:1],,,,5-8[8:1],,6^8[8:1],,8^3[8:1]*q4[8:1],,,,,,,,
6v1[8:1],,7,,2-5[8:1]*^5[8:1],,,,2V86[8:1],,,,5p1[8:1],,4,,
3h[4:1],,,,8p4[8:1],,2^4[8:1],,4v1[8:1]*^7[8:1],,,,,,,,
8v3[8:1],,7,,4q8[8:1]*pp6[8:1],,,,4-1[8:1],,,,7s3[16:3],,8,,
1h[4:1],,,,,,2^5[8:1]/1q1[4:1],,5^8[8:1],,,,,,,,
3^8[8:1],,2,,7v2[8:1]*p3[8:1],,,,7V15[16:3],,,,4q8[8:1],,3,,
2h[4:1],,,,,,2qq8[8:1]/6<4[4:1],,8q5[8:1],,,,,,,,
8-3[8:1],,7,,4-8[8:1]*pp5[8:1],,,,4^1[8:1],,,,7p3[8:1],,8,,
1h[4:1],,,,4-1[8:1],,3^1[8:1],,1^6[8:1]*p5[8:1],,,,,,,,
3v8[8:1],,2,,7-4[8:1]*^4[8:1],,,,7V13[8:1],,,,4q8[8:1],,5,,
6h[4:1],,,,{32}1-5[8:1],2,3,4,5,6,7,8,{16}1bw5[8:1],,,,1b,,,,
2-5[8:1],,4,4h[16:7],2,,,,7-3[8:1],,5,5h[16:7],7,,,,
2-6[8:1],,3,3h[16:7],2,,,,7-4[8:1],,6,6h[16:5],7,,,,
4^1[16:3],,,1^6[16:3],,,6^4[8:1],,4-1[8:1]*q8[8:1],,,,,,,,
2b/7,27,,3/6b,36,,4/5b,45,4b/5,,3,6,1,8,2,7,
{32}3b,4,5,6,7,8,1,2,3,4,5,6,7,8,1,2,
3,4,5,6,7,8,1,2,3,4,5,6,7,8,1,2,
3,4,5,6,7,8,1,2,3,4,5,6,7,8,1,2,
3,4,5,6,7,8,1,2,3,4,5,6,7,8,1,2,
{16}
3qq5[2:3]/6V48[2:3],,,,,,,,,,,,,,,,
,,,,,,,,,,,,,,,,
3h[8:1],,4,4h[8:1],,2,2,,6h[8:1],,5,5h[8:1],,7,7,,
1h[8:1]/8h[8:1],,,2h[8:1]/7h[8:1],,,36,,45,,45,,3pp6[4:7],4,5,6,
3h[8:15],,,,,,,,,,,,,,,,
,,,,,,,,,,,,,,,,
3-7[8:1],,,,,,,,,,,,,,,,
,,,,,,,,,,,,,,,,
E
