&title=Cosmic Train
&artist=Shoichiro Hirata feat.SUIMI
&first=0
&des=Stardust
&lv_6=13+
&inote_6=(130){16},,,,,,,,,,,,,,,,3-7[8:1],,,7-2[8:1],,,4-6[16:1],,,4-1[8:1]*-8[8:1],,,,,,,,,
2-7[8:1],,,7-3[8:1],,,5-8[8:1],,,5-1[8:1],,,,,
6-2[8:1],,,2-7[8:1],,,5-3[16:1],,,5-8[8:1]*-1[8:1],,,,,,,,,
7-2[8:1],,,2-6[8:1],,,4-1[8:1],,,4-8[8:1],,,,,
2-6[8:1],,,6-3[8:1],,,1-7[16:1],,,1-4[8:1]*-5[8:1],,,,,,,,,
6-3[8:1],,,3-7[8:1],,,1-4[8:1],,,1-5[8:1],,,,,
3V51[4:1],,,,,,,,7-3[8:1],,,,{8}5w1[8:1],,5<5[2:1],,,,,,,
1V35[16:3],1V75[16:3],,,,3-6[8:1],,,8V64[16:3],8V24[16:3],,,,6-3[8:1],,,
1-5[8:1],7-4[8:1],1>5[8:1],,,7-4[8:1],,,2-6[8:1],8-5[8:1],2>6[8:1],,,8v5[8:1],,,
3>8[8:1],7<4[8:1],3-7[8:1],7-3[8:1],3-8[8:1],,,,6<1[8:1],2>5[8:1],6-2[8:1],2-6[8:1],6-1[8:1],,,,
5-8[8:1],6<1[8:1],,,4-7[8:1],5<8[8:1],,,3-6[8:1],6v4[8:1],,,8<5[8:1],5v3[8:1],,4b,,
2-6[4:1],,6-2[16:3],,2-4[8:1],,,,7-3[4:1],,3-7[16:3],,7-5[8:1],,,,3>1[4:1],,1<6[4:1],,6>2[4:1],,2w6[4:1],,,,,,,,,,
6<2[4:1],,2>6[4:1],,6-2[16:3],,,,3>7[4:1],,7<3[4:1],,3-7[16:3],,,,5<1[4:1],,1>5[4:1],,5p7[16:4],,,,4>8[4:1],,8<4[4:1],,4q2[16:3],,8b,,
5v2[8:1]*v8[8:1],,5v4[8:1],,5>2[8:1]*<8[8:1],,,,4v7[8:1]*v1[8:1],,4v5[8:1],,4<7[8:1]*>1[8:1],,,,8v5[8:1],,8-6[8:1]/1-3[8:1],,1v4[8:1],,,,6<2[4:1],,2-7[8:1],2-5[8:1],,,,,
4-8[8:1]*-6[8:1],,4V26[4:1],,6V84[4:1],,,5-1[8:1],6-8[8:1],5V37[4:1],,,7w3[8:1],,,,
7-3[8:1],,7>7[8:3]*<7[8:3],,,,,,2-6[8:1],,2>5[8:1],5-1[32:3],2-6[8:1]*-7[8:1],,,,
1>4[8:1],,1<6[8:1],6pp4[4:1],,,5b,,8<5[8:1],,8>3[8:1],3qq5[4:1],,,4b,,
1-6[8:1],,1-4[8:1],4pp2[4:1],,,8b,,8-3[8:1],,8-5[8:1],5qq7[4:1],,,1b,,
4v7[8:1],,5v2[8:1],,4>1[8:1],,5<8[8:1],,4qq8[4:1],,,6-4[16:1],5-3[16:1],6-2[2:1]*w2[2:1],,,,,,,,,,,,,,,,,
8b,,3>1[16:1],,{32}8<1[32:7],7<1[16:3],6>1[32:5],5>1[8:1],{8},,,{32}8<1[32:7],7<1[16:3],6>1[32:5],5>1[8:1],{8},,,5-8[8:1],,5-2[8:1]/4>1[8:1],,,,
6<8[16:1],,{32}1>8[32:7],2>8[16:3],3<8[32:5],4<8[8:1],{8},,,{32}1>8[32:7],2>8[16:3],3<8[32:5],4<8[8:1],{8},,,4V25[16:3],,4V61[16:3],,,,
3<5[16:1],,{32}6<5[32:7],7>5[16:3],8>5[32:5],1>5[8:1],{8},,,{32}6<5[32:7],7>5[16:3],8>5[32:5],1>5[8:1],{8},,,6-8[8:1],6-3[8:1],,,,,
6p2[8:1],2p6[8:1],6>6[4:1],,,,5b,5w1[8:3],,,,,,,
1b,,2v5[8:1]/6v3[8:1],,2<7[8:1],,2V48[4:1]*-6[8:1],,,,
7>2[8:1],,7-3[8:1],3-7[8:1],7V51[4:1],,,,
3<5[16:1],,{32}6b,7>5[16:3],8>5[32:5],1>5[8:1],{8},,,{32}6b,7>5[16:3],8>5[32:5],1>5[8:1],
{8},,,7>3[8:1],3-7[8:1],7V51[4:1],,,,
3-7[8:1],,2<7[8:1]/3<6[8:1],,2-6[8:1],,3<6[8:1]/2<7[8:1],,3-7[8:1],,1-6[8:1],1-4[8:1],,,,,7>2[4:1],,2p6[16:3],,6-3[8:1],6qq2[2:1],,,,,,,,,,
2-5[8:1],5-2[8:1],,,8-3[8:1],3-8[8:1],,,4-7[8:1],7-4[8:1],,,6-1[8:1],1-6[8:1],,,
4-1[8:1],1-4[8:1],4-7[8:1],,8-5[8:1],8-3[8:1],,,5-8[8:1],8-5[8:1],5-2[8:1],,1-4[8:1],1-6[8:1],,,
3<6[8:1],6>3[8:1],3pp1[4:1],,8<5[8:1],8>3[8:1],,,6>3[8:1],3<6[8:1],6qq8[4:1],,1>4[8:1],1<6[8:1],,,,
3<6[8:1]*-6[8:1],,3>8[8:1]*-8[8:1],,3b,,
3v6[8:1],7v2[8:1],3>8[8:1],7<4[8:1],3-7[8:1],7-3[8:1],3V17[4:1],,,,5<7[4:1]*<1[2:1]*<3[4:3]*<5[1:1],5b,
