&title=L'épilogue (DX)
&artist=SOUND HOLIC feat. Nana Takahashi
&first=0
&des=NullZone
&lv_5=13+
&inote_5=(145){1},
{2}7h[2:1],5h[2:1],
{1}3qq7[2:1],
{2}2h[2:1],4h[2:1],
{16}6,,,7/8,,,1/2,,1-6[8:1]/2-5[8:1],,8/3,,1b/2b,,,,
{16}3h[16:3],,,4h[16:3],,,5p1[8:1],,,,6,,7,7,,8>3[8:1],
{16},,,7,,,6h[4:1],,,,4-1[8:1],,4,4,,7<4[8:1],
{16},,,7,,,3h[4:1],,,,5-8[8:1],,5,5,,2>5[8:1],
{16},,,2,,,7h[4:1],,,,8,7,1,8,2,,
{16}6h[16:3],,,5h[16:3],,,4q8[8:1],,,,3,,2,2,,1<6[8:1],
{16},,,2,,,3h[4:1],,,,7,,4,5,4,,
{16}6-4[8:1]/3-5[8:1],,,,6/3,,,,7/2,7/2,,8/1,,7/2,,6/3,
{16}6/3,,8/2,,6/4,,7/1,,5/3,,8/2,,1,1,1,,
{8}7b<4[8:1],,7,8-3[8:1],,8-5[8:1],,8-4[8:1],
{8},8<5[8:1],,8>3[8:1],,8,,6/4,
{8}1/7-4[8:1],,7/2,3-8[8:1],,3/6>3b[16:7]pp6[16:7],,E8,
{8},E1,,E2,,E5,D5,,
{8}2>5[8:1],,2,1-6[8:1],,1-4[8:1],,1-5[8:1],
{8},1>4[8:1],,1<6[8:1],,1,,5/3,
{8}8/2-5[8:1],,7/2,6-1[8:1],,6/3,,4>8[4:1],
{8},8<4[4:1],,4-8[8:1],,1,,7b/2,
{8}2b/7-5[8:1],8,7/2-6[8:1],1,2/7-4[8:1],8,7/2,1,
{4}8-4[8:1]/2-4[8:1],8-6[8:1]/2-6[8:1],8-4[8:1]/2-4[8:1],8/2,
{8}5>2[8:1],6,7,8<5[8:1],1,2,3>8[8:1],4,
{8}5-7[8:1]*-8[8:1],,5-3[8:1]*-2[8:1],,5,,6,6,
{8}7/2-4[8:1],1,2/7-3[8:1],8,7/2-5[8:1],1,7/2,8,
{4}7-5[8:1]/1-5[8:1],7-3[8:1]/1-3[8:1],7-5[8:1]/1-5[8:1],7/1,
{8}4<7[8:1],3,2,1>4[8:1],8,7,6<1[8:1],5,
{4}4<6[8:1]*>2[8:1],4-8[8:1],4pp5b[8:1]*qq3b[8:1],4bx,
{16}7-4[16:1],8,7,8,7,,2-5[16:1],1,2,1,2,,7x,,8x/4x,,
{16}6-1[16:1],5,6,5,6,,3-8[16:1],4,3,4,3,,6x,,5x/1x,,
{16}7-4[16:1],8,7,8,7,,2-5[16:1],1,2,1,2,,7x,,8x/4x,,
{16}6bh[8:1]/5h[8:1],,,4h[8:1]/2bh[8:1],,,1/7b<4[8:1],,,,7/8b,,1b,,,,
{16}2-5[16:1],1,2,1,2,,7-4[16:1],8,7,8,7,,2x,,5x/1x,,
{16}3-8[16:1],4,3,4,3,,6-1[16:1],5,6,5,6,,3x,,8x/4x,,
{16}1x,1,2x,2,3x,3,4x,4,5x,5,6x,6,7x,7,8x,8,
{1}1bxz5b[2:1],
{16}3/8>2[8:1],,,4,8<6[8:1],,4,,3/8-2[8:1],,,4,8-6[8:1],,4,,
{16}3/8>2[8:1],,,4,8<6[8:1],,4,,8/5v2[8:1],,5,,8h[4:1],,,,
{16}1<7[8:1],,,5,1>3[8:1],,5,,6/1-7[8:1],,,5,1-3[8:1],,5,,
{16}6/1<7[8:1],,,5,1>3[8:1],,5,,1/4v7[8:1],,4,,1h[4:1],,,,
{16}6-8[8:1],,,5,6,,4,,3-1[8:1],,,4,3,,5,,
{16}6-1[8:1],,,5,6,,4,,3-8[8:1],,,4,3,,5,,
{16}7h[8:1],,,6h[8:1]/5h[8:1],,,7/1,,2h[8:1],,,4h[8:1]/3h[8:1],,,8/2,,
{32}1x,2,3,4,5,6,7,8,1,2,3,4,5,6,7,8,1,2,3,4,5,6,7,8,C1f/1b,,,,,,,,
{16}1/2v5[8:1],,8/3,,1/2,,7,7h[16:3],,,5p1[8:1],,6,,5,,
{16}7<4[8:1],,8,,7,,2,2h[16:3],,,1-5[8:1],,2-4[8:1],,1,,
{16}2<7[8:1]-3[8:1],,,,6/2,,5,5,,,B6,,B7,,2-5[8:1],1,
{16},,8/2,,7,7,,6/5,,4/3,,2,2,,1/3,,
{16}8/7v4[8:1],,6/1,,7/8,,2,2h[16:3],,,4q8[8:1],,3,,4,,
{16}2>5[8:1],,1,,2,,7,7h[16:3],,,8-4[8:1],,7-5[8:1],,8,,
{16}7>5[4:1],,,,7/6,,,,B6,,B7,,B8,,,C1fh[16:13]/B5/B4/B3,
{1},
{16}2>4[8:1],,5v8[8:1],,2-6[8:1]-2[8:1],,5,,2,,7,7h[16:5],,,,,
{16}1-4[8:1],,4>1[8:1],,1<6[8:1],,6-1[8:1],,5,,5,5h[16:5],,,,,
{8}1>4[8:1],6v1[8:1],1,6,5v2[8:1],8<5[8:1],5,8,
{16}1-3[8:1],,6-8[8:1],,1-5b[16:1],,6,,1<6[0.2759##0.1853]*>4[0.2759##0.1853],,,1bx,,,,,
{16}7<5[8:1],,4v1[8:1],,7-3[8:1]-7[8:1],,4,,7,,2,2h[16:5],,,,,
{16}8-5[8:1],,5<8[8:1],,8>3[8:1],,3-8[8:1],,4,,4,4h[16:5],,,,,
{8}7-3b[8:1],7,2<7b[8:1],2,6>3b[8:1],6,2,2,
{8}8/1,6/5,8s4b[4:1]/1z5b[4:1],4/3,8b/1b,,,,
{16}2-5[16:1],1,3,8,2,,7-4[16:1],8,6,1,7,,2x,,5x/3x,,
{16}6-1[16:1],5,7,4,6,,3-8[16:1],4,2,5,3,,6x,,7x/1x,,
{16}2-5[16:1],1,3,8,2,,7-4[16:1],8,6,1,7,,2x,,5x/3x,,
{16}1bx>4[0.2759##0.1853]*-4[0.2759##0.1853],,,1bx<6[0.2759##0.1853]*-6[0.2759##0.1853],,,1bx-5[8:1]-1[8:1],,,,1bx,,6bx,,,,
{16}7-4[16:1],8,6,1,7,,2-5[16:1],1,3,8,2,,7x,,6x/4x,,
{16}3-8[16:1],4,2,5,3,,6-1[16:1],5,7,4,6,,3x,,8x/2x,,
{16}1x,1x,1x,1x,1x,1x,1x,1x,1x,1x,1x,1x,1xz5b[4:3],1x,1x,1x,
{1}1bxh[4:3],
{16}8<5[8:1],,5q1[8:1],,8,,4,4h[16:3],,,2-6[8:1],,3-5[8:1],,2,,
{16}3,,7v2[8:1],,7,,3,3h[16:3],,,4-8[8:1],,5-7[8:1],,4,,
{16}5>8[4:1],,,,6/5,,7,7h[16:9],,,B2/E3,,B4/E4,,,,
{16}C1,,,,6,5,,7/4,,5/1,,7,8,,6/3,,
{16}1>4[8:1],,4p8[8:1],,1,,5,5h[16:3],,,7-3[8:1],,6-4[8:1],,7,,
{16}6,,2v7[8:1],,2,,6,6h[16:3],,,5-1[8:1],,4-2[8:1],,5-7[8:1],,
{16}4-8[8:1],,5,,4,,5,5h[16:3],,,2-7[8:1],,2,,6,6xh[16:3],
{16},,5,,7,5,,8/3,,6/1,,7/2,7/2,,8/1,,
{64}8bxz4b[8:5]>5[8:5]/1bxs5[8:5]<4[8:5],7bx/2bx,6bx/3bx,5bx/4bx,,,,,,,,,,,,,,,,,,,,,,,,,,,,,,,,,,,,,,,,,,,,,,,,,,,,,,,,,,,,,
{1},
{1},
{1},
E
