&title=Mr.Q
&artist=蔡依林
&first=0
&des=周阴婷
&lv_7=Q
&inote_7=(152)
{16},,,,,,,,,,,,,,,,
3h[4:3]/4h[2:1],,,,,,,,,,,,5h[4:3],,,,
4h[4:3],,,,,,,,,,,,6h[4:3],,,,
5h[4:3],,,,,,,,,,,,,,,,
Ch[2:3],,,,,,,,,,,,,,,,
,,,,,,,,{24}A3,D4,A4,A5,D6,A6,E3,B3,B4,B5,B6,E7,
{32}1qq5[2:1]*qq3[2:1],2x,3x,4x,5x,6x,7x,8x,{16},,,,,,,,,,,,
8>4<8[2:1]/4h[4:1],,,,,,4,,8^2>8[2:1],,2^4<2[2:1],,4h[4:1],,,,
8^2>6^8[2:1],,2,,,,6<2^4^6[2:1],,,,2^4<2[2:1],,4h[4:1],,,,
,,,,4<8^2^4[2:1],,4,,8^2>8[2:1],,2>2^4^6^8[8:7],,4h[4:1],,,,
,,,,4^6^8[4:1],,,,E1,,C,,E5f,,,,
8>4<8[2:1]/4h[4:1],,,,,,4,,8^2>8b[2:1],,2^4<2[2:1],,4h[4:1],,,,
8^2>6^8[2:1],,2,,,,6<2^4^6b[2:1],,,,2^4<2[2:1],,4h[4:1],,,,
,,,,4<8^2^4[2:1],,4,,8^2>8b[2:1],,2>2^3^4^5^6^7^8[8:7],,4h[4:1],,,,
,,,,,,,,,,,,E4/D4f/B8/B1/B2/B3/B4/B5/B6/B7,,,,
8<4^2[8:3],,,,4>4[2:1],,4h[4:1],,,,,,4>8<4[2:1],,,,
8<4^2[8:3],,8,,,,2^8<4^2[2:1]*-8[8:1],,,,,,,,,,
8<4^2[8:3],,,,4>8^7^6^5^4b[2:1],,4h[4:1],,,,,,4>8<4>8[4:3],,,,
8p8[2:1],,,,,,,,,,,,,,,,
8>4^6[8:3],,,,4<4[2:1],,4h[4:1],,,,,,4<8>4[2:1],,,,
8>4^6[8:3],,8,,,,6^8>4^6[2:1]*-8[8:1],,,,,,,,,,
8>4^6[8:3],,,,4<8^1^2^3^4b[2:1],,4h[4:1],,,,,,4<8^2^4^6^8[4:3],,,,
8z4z8[2:1],,,,,,,,,,,,,,,,
8<4^2[8:3],,,,4>4[2:1],,4h[4:1],,,,,,4>8<4[2:1],,,,
8<4^2[8:3],,8,,,,2^8<4^2[2:1]*-8[8:1],,,,,,,,,,
8<4^2[8:3],,,,4>8^7^6^5^4b[2:1],,4h[4:1],,,,,,4>8<4>8[4:3],,,,
8,,8,,,,,,,,B6,,C,,B2,,
8>4^6[8:3],,,,4<4[2:1],,4h[4:1],,,,,,4<8>4[2:1],,,,
8>4^6[8:3],,8,,,,6^8>4^6[2:1]*-8[8:1],,,,,,,,,,
8>4^6[8:3],,,,4<8^1^2^3^4b[2:1],,4h[4:1],,,,,,4<8^2^4^6^8[4:3],,,,
8-2-4-6-8b[2:1],,,,,,,,,,,,,,,,
8>4<8b[2:1],,8,,4,,4,,8>8[2:1],,8,,4,,4,,
8^2^4^6^8b[2:1],,8,,4,,4,,8>8[2:1],,8,,4,,4,,
8^1^2^3^4^5^6^7^8b[2:1],,8,,4,,4,,8>8[2:1],,8,,4,,4,,
8,,8,,4,,4h[8:3],,{64}E1,B1,E2,B2,E3,B3,E4,B4,E5,B5,E6,B6,E7,B7,E8,B8,{16}E1f/C,,,,
8<4>8[2:1]/4bq1b[8:1],,,,4b>8<4[2:1],,,,8xb<4>8<4[4:3],,,,4,,3,,
1,,8,,3x-8-5[4:1],,2,,{48}3b,D3,A2,D2,A1,D1,,D8,A7,D7,A6,D6f,{16},,,,
8<4>8[2:1]/4bp7b[8:1],,,,4b>8<4[2:1],,,,8xb<4>8<4[4:3],,,,4,,4,,
8,,8,,3xp2b[4:1],,3x,,{32}E3,E2,E1,E8,E7,E6,E5,E4,{16}E3f,,,,
4>8<4[2:1]/8bq5b[8:1],,,,8b<4>8[2:1],,,,4xb>8<4>8[4:3],,,,8,,7,,
5,,4,,7x-4-1[4:1],,6,,{48}7b,D7,A6,D6,A5,D5,,D4,A3,D3,A2,D2f,{16},,,,
8<4[4:1],,,,4>7[4:1],,,,7<1[4:1],,,,2<3[4:1],,,,
E5f/B4/B5/A4/A5,,,,2,,2qq4[8:3],,,,5x,,6x,,7x,,
8x>4<8[2:1],,,,4,,4,,8^2>8b[2:1],,2^4<2[2:1],,4h[4:1],,,,
8^2>6^8[2:1],,2,,,,6<2^4^6b[2:1],,,,2^4<2[2:1],,4h[4:1],,,,
,,,,4<8^2^4[2:1],,4,,8^2>8b[2:1],,2>2^3^4^5^6^7^8[8:7],,4h[4:1],,,,
,,,,,,,,,,,,E4/D4f/B8/B1/B2/B3/B4/B5/B6/B7,,,,
8x>8>4<8[1:1]/4xh[4:3],,,,,,,,,,,,,,,,
8^2^4^6^8^1^2^3^4^5^6^7^8[1:1],,,,,,,,,,,,,,,,
A4f/B4/C,,,,,,,,,,,,,,,,
,,,,,,,,{32}8x/4h[2:1],7x,6x,5x,,3x,2x,1x,8x,7x,6x,5x,,3x,2x,1x,
{16}8xb<8<8<8[2:7],,,,A4/B4/C,,,,3x,,3x,,A4/B4/C,,,,
1x,,,,A4/B4/C,,,,3x,,3x,,A4/B4/C,,,,
1x,,,,A4/B4/C,,,,3x,,3x,,A4/B4/C,,,,
1x,,,,A4/B4/C,,,,3x,,3x,,A4/B4/C,,,,
{16}8xb>8>8[2:5],,,,A4/B4/C,,,,3x,,3x,,A4/B4/C,,,,
1x,,,,A4/B4/C,,,,3x,,3x,,A4/B4/C,,,,
1x,,,,A4/B4/C,,,,3x,,3x,,A4/B4/C,,,,
7xb-5[8:1],,,,8b-4[8:1]/7,,,,1b-3[8:1]/8,,,,{32}B4f/1,C,{16}B8,,,
7x<7<7[1:1],,,,4h[2:1],,,,A3,,A1,,A7,,A5,,
7x<7<7[1:1],,,,4h[2:1],,,,E4,,E2,,E8,,E6,,
7x<7<7[1:1],,,,4h[2:1],,,,A3,,A1,,A7,,A5,,
Ch[4:3],,,,,,,,,,,,E4/D4f/B8/B1/B2/B3/B4/B5/B6/B7,,,,
7x>7>7[1:1],,,,4h[2:1],,,,A3,,A5,,A7,,A1,,
7x>7>7[1:1],,,,4h[2:1],,,,E4,,E6,,E8,,E2,,
7x>7>7[1:1],,,,4h[2:1],,,,A3,,A5,,A7,,A1,,
8x,,1b,,2bqq5[4:1],,,,{48}2/E7f,B6,B5,{16}E5,,,,,,,
4>8<4[2:1]/8bq5b[8:1],,,,8b<4>8[2:1],,,,4xb>8<4>8[4:3],,,,8,,7,,
5,,4,,7x-4-1b[4:1],,6,,{48}7b,D7,A6,D6,A5,D5,,D4,A3,D3,A2,D2f,{16},,,,
4>8<4[2:1]/8bp3b[8:1],,,,8b<4>8[2:1],,,,4xb>8<4>8[4:3],,,,8,,8,,
4,,4,,7xp6b[4:1],,7x,,{32}E7,E6,E5,E4,E3,E2,E1,E8,{16}E7f,,,,
8<4>8[2:1]/4bq1b[8:1],,,,4b>8<4[2:1],,,,8xb<4>8<4[4:3],,,,4,,3,,
1,,8,,3x-8-5b[4:1],,2,,{48}3b,D3,A2,D2,A1,D1,,D8,A7,D7,A6,D6f,{16},,,,
4>8[4:1],,,,8<3[4:1],,,,3>5[4:1],,,,6>7[4:1],,,,
E1f/B8/B1/A1/A8/D1,,,,6-2[8:1],,6,,,,4,,8^5[8:1]/4^1[8:1],,,,
8b/4b>5[4:1],,,,{24}4bh[4:1]/E4,E3,E2,E1,E8,E7,{16}E6f,,,,4<8[8:1],,8>4[8:1],,
4xqq5<4b[2:1],,1x,,6x,,7xh[8:3],,{24}D6,D7,D8,D1,D2,D3,{16}D4f,,,,
4>8<4[2:1]/8b-4[8:1],,,,{48}8b<4>8[2:1],B8,C,{16}B4,,,4x>8<4[2:1],,,,8,,7,,
5,,4,,{24}2x,1x,8x,7x,6x,5x,{32}4xb/A1f,B1,C,B5,{16}A5,,4^1[8:1]/8^5[8:1],,,,
4b/8b<1[4:1],,,,{24}4bh[4:1]/E8,E7,E6,E5,E4,E3,{16}E2f,,,,6>2[8:1],,2<6[8:1],,
6xpp5>6b[2:1],,1x,,3x,,4xh[8:3],,{24}D5,D4,D3,D2,D1,D8,{16}D7f,,,,
2<6[4:1],,,,6>1[4:1],,,,1<3[4:1],,,,4>5[4:1],,,,
{32}E5,E4,E3,E2,E1,E8,E7,E6,{16}E5/A4f,,,,,,35,,26,,17,,
8b<2[8:3],,,,4>6[8:3],,4h[4:1],,,,,,,,,,
8^6[8:1],,6>2[4:1],,,,2<6[4:1],,,,6>2[4:1],,4>4[2:1],,,,
A4/B4/C,,,,,,,,,,,,,,,,
,,,,,,,,,,,,,,,,
E
