&title=Usagi Flap
&artist=Blue Archive
&first=0.012
&des=Tane
&lv_5=13
&inote_5=(170){1},{8},,,,
,,3,2,
{8}12,,8,,
78,,2,34,
{8},3,4,5,
,6,5,4,
{8}34,,4,,
56,,5,4,
{8},4,5,36,
,6,7,8,
{8}12,,1,,
78,,7,56,
{8},3,4,45,
,6,5,4,
{8}3^6[4:1]/7,,,,
8p4[8:1],,,1w5[2:1],
{8},,,,
,,,,
{8}2-8[8:1],,7,7,
2-4[8:1],,6h[32:1],6h[32:1],
{8}7-1[8:1],3,3,,
7-5[8:1],,3,3,
{8}2-4[8:1],,6,6,
2-8[8:1],,7h[32:1],7h[32:1],
{8}7-5[8:1],3,3,,
7-1[8:1],,2,2,
{8}2h[2:1],1h[64:1],1h[64:1],1h[64:1],
1h[64:1],,3,5,
{8}7h[2:1],8h[64:1],8h[64:1],8h[64:1],
8h[64:1],,6,4,
{8}2h[2:1],1,8,7,
6^1[8:1],,2,2pp3[8:3],
{8},8,8,,
6,4,5,6,
{8}7-1[8:1],,3,3,
7-5[8:1],,3h[32:1],3h[32:1],
{8}2-8[8:1],6,6,,
2-4[8:1],,6,6,
{8}7-5[8:1],,3,3,
7-1[8:1],,2h[32:1],2h[32:1],
{8}2-4[8:1],6,6,,
2-8[8:1],,7,7,
{8}6h[2:1],8h[64:1],8h[64:1],8h[64:1],
8h[64:1],,6,4,
{8}3h[2:1],1h[64:1],1h[64:1],1h[64:1],
1h[64:1],,3,5,
{8}6h[2:1],8,1,2,
3^8[8:1],,7,7qq6[4:1],
{8},1,2,3,
4,5,6,7,
{8}8b,,1,,
2,,3,3,
{8}5h[2:1],,7h[32:1],7h[32:1],
7,6,6,,
{8}1,,8,,
7,,6,6,
{8}4h[8:3],,2<5[4:1],2,
,,,,
{8}1,,2,,
3,,4,4,
{8}6h[2:1],,2h[32:1],2h[32:1],
2,3,3,,
{8}8,,7,,
6,,5,5,
{8}3h[2:1],,,,{32}1b,8,7,,
,,,,
{8},,
{8}17,,3,,
2,8,3^6[4:1],7,
{8}7,,8,,
1,,2,,
{8}28,,6,,
2,1,8,7^2[4:1],
{8}3,,3,,
3,4,5,6,
{8}71,,72,,
73,,3,4,
{8},56,,45,
,5,4,3,
{8}2b,3,4,35,
,46,,2/7h[8:5],
{8},,,,
{32}8b,1,2,,{8},,,
{8}12,,28,,
12,,2,8,
{8}78,,71,,
78,,7,1,
{8}12,,28,,
12,,2,1,
{8},7,8,,
2^4[8:1]/7^5[8:1],,,,
{8}2,8,2,1,
8,,7,3,
{8}7,1,7,8,
1,,2,6,
{8}8,7^4[8:1],,1,
2^5[8:1],,1,8,
{16}7,8,7,,
2,1,2,,
8,1,7,2,
6,,,,
{8}12,2,28,2,
21,,1,8,
{8}78,7,71,7,
78,,8,1,
{8}17,1,28,8,
18,,27,1q5[8:1]/8p4[8:1],
{8},,,,
{16}4,5,4,5,
4,,,,
{8}34,,25,,
34,,45,45,
{8}56,,47,,
56,,45,45,
{8}25,25,4,4,
47,47,5,5,
{16}1,8,2,7,
3,6,4,5,
{8}4,5-7[8:1]*-7[8:1],2-4[8:1],5b,
{8}2-8[8:1],7,
2-4[8:1],5,2,7h[32:1],7h[32:1]/3-1[8:1],7h[32:1],
{8}3-5[8:1],6,
3-1[8:1],8,3,6h[32:1],6h[32:1]/2-4[8:1],6h[32:1],
{8}2-8[8:1],7,
2-4[8:1],5,2,7h[32:1],7h[32:1]/3-1[8:1],7h[32:1],
{8}3-5[8:1],6,
3-1[8:1],1-5[8:1]*^4[8:1],
,,,,
{8}5qq1[8:3]/6,47,7h[32:1],
7h[32:1],7h[32:1],,8-5[8:1],1,
{8}8pp3[8:3],1,6,6,
6,,5^8[8:1],2,
{8}5^2[8:1],3,5^8[8:1],7,
1^4[8:1],,1,6z2[4:1],
{8},,,,
,5,6,7,
{8}8-2[8:1],3,
8-6[8:1],5,8,3h[32:1],3h[32:1]/7-1[8:1],3h[32:1],
{8}7-5[8:1],4,
7-1[8:1],2,7,2h[32:1],2h[32:1]/6-4[8:1],2h[32:1],
{8}6-8[8:1],1,
6-4[8:1],3,6,1h[32:1],1h[32:1]/5-7[8:1],1h[32:1],
{8}5-3[8:1],2,
5v7[8:1],8-4[8:1]*^5[8:1],
,,,,
{8}4pp8[8:3]/3,52,2h[32:1],
2h[32:1],2h[32:1],,1-4[8:1],8,
{8}1qq6[8:3],8,3,3,
3,,4^1[8:1],7,
{8}4^7[8:1],6,4^1[8:1],2,
8^5[8:1],,8^3[8:1],3^8[8:1],
{8}8-4[8:1],4^7[8:1],,,
3,3,2,1,
{8}7-4[8:1],8h[32:1],8h[32:1],8h[32:1],
4-7[8:1],,1h[32:1],1h[32:1],
{8}2-5[8:1],1h[32:1],1h[32:1],1h[32:1],
5-2[8:1],,8h[32:1],8h[32:1],
{8}7-4[8:1],1h[32:1],1h[32:1],1h[32:1],
4-6[8:1],,2h[32:1],2h[32:1],
{8}2-5[8:1],8h[32:1],8h[32:1],8h[32:1],
5-3[8:1],,7h[32:1],7h[32:1],
{8}6^3[8:1],7,8,1,
2-5[8:1],,8h[32:1],8h[32:1],
{8}3^6[8:1],2,1,8,
7-4[8:1],,1h[32:1],1h[32:1],
{8}5-2[8:1],6,7,8,
1-5[8:1],,8h[32:1],8h[32:1],
{8}4-7[8:1],3,2,1,
{16}8,,1,,
8,1,8,,
{8}2b/7b,,47,,
28,7,46,5,
{8}2,6,47,6,
2,5,46,7,
{8}28,7,46,5,
24,5,46,7,
{8}2,7,48,1,
2,6,47,8,
{8}7/2,,52,,
71,2,53,4,
{8}7,3,52,3,
7,4,53,2,
{8}7/1^4[8:1],,,,
7^4[8:1],,,1s5[8:1],
{8},,,,
,,,,
