&title=影色舞
&artist=MyGO!!!!!
&first=0
&des=aoihoshi
&lv_5=12+
&inote_5=(166)
{1},
{16}
6,,5,,4,,3h[4:1],,,,6,,5,,4,,
3h[4:1],,,,6,,5,,4,,3,,27,,,,
6,,5,,4,,3h[4:1],,,,1,,48,,57,,
26,,4,3,5,,1-5[8:1]/7,,,,8h[256:1],,8h[256:1],,,,
3b/4b,,2,,34,,1,,78,,6,5,6,,47,,
3-8[8:1],,3,,4,,5,,6-3[8:1],,18,,63,,,,
65,,7,,65,,8,,21,,3,4,3,,52,,
1h[8:1],,4,3,5h[8:1],,8,7,1,,28,,37,,,,
7/8,,6,,78,,5,,34,,2,1,2,,83,,
7-4[8:1],,7,,8,,1,,2-6[8:1],,35,,26,,,,
1b/8b,,3,6,4,5,2,7,4,5,3,6,45,,,,
37,,26,,15,,4-7[8:1]/8-3[8:1],,,,4b/8b,,,,,,
3-5[8:1],,,,35,,6,,7-4[8:1],,,,47,,3,,
3^6[4:1],,,,6^3[4:1],,,,1,,,,8<4[4:1],,,,
4>8[4:1],,,,8<4[4:1],,,,4>8[4:1],,,,8z4[4:1],,,,
4,,,,1,,,,1,,2,,34,,25,,
6/1h[4:1],,,,8,,7,,56,,47,,38,,,,
2-6[8:1],,2,,5-8[8:1],,5,,4,,,,26,,,,
7,,8h[4:1],,,,4,,37,,26,,15,,,,
36,,5,4,5,,1b-5[8:1]/8b-4[8:1],,,,,,,,,,
6-4[8:1],,,,64,,3,,2-5[8:1],,,,52,,6,,
6^3[4:1],,,,3^8[4:1],,,,8,,,,5,,,,
3-8[8:1]/7-4[8:1],,,,37,,,,15,,26,,37,,48,,
4-1[8:1]/8-4[8:1],,,,48,,,,5,,6,,78,,61,,
2/5h[4:1],,,,4,,3,,12,,83,,74,,,,
1-5[8:1]/6-1[8:1],,,,16,,,,3-8[8:1]/8,,,,34,,4-7[8:1],,
,,2,,1pp4[8:3],,,,5,,,,6,,,,
8,,17,,26,,35,,4,6,3,5,4,,,,
12,,{24}3,4,3,{16}4,,2q6[8:1]/5,,,,8,,8,,,,
{24}6,5,6,5,6,5,{16}6,,4/7p2[8:1],,,,1,,1,,,,
28,,3,,47,,6,,35,,2,,17,,8,,
12,,3,,45,,6,,7/8^3[8:1],,5,,5,,,,
46,,7,5,8,,12,,3-8[8:1],4,,4,3,,5,,
17,,26,,35,,{24}2,4,2,7,5,7,2,1,2,7,8,7,4,5,3,
{16}6b>8[2:1],,,,,,,,,,,,3,,,,
48,,37,,26,,1h[4:1]/5,,,,7,,26,,35,,
4^1[8:1]/8^5[8:1],,,,48,,,,1,5,1,5,3b/7b,,,,
2-8[8:1]/6-4[8:1],,,,2-4[8:1]/6-8[8:1],,,,2/6V48[16:3],,,,3,,2-6[8:1],,
,,1^6[8:1]/2,,,,15,,4-8[8:1],,3,,24,,,,
4v5[8:1]/8v5[8:1],,,,4v1[8:1]/8v1[8:1],,,,48,,,,37,,2,,
1V73[16:3],,,7,,,6,,5w1[8:1],,,,5,,,,
37,,2,4,3,,7,5,6^1[8:1],,1,,2,,3,,
48,,6,5,7,,3,4,2v5[8:1],,5,,6,,7,,
4v1[8:1]/8,,3,,4/7-3[8:1],,6,,17,,2,2,8,8,1pp4[16:5],,
,,4,,5,,6,,7-2[8:1]*-4[8:1],,,,7,,,,
7-5[8:1]/3-5[8:1],,,,7-1[8:1]/3-1[8:1],,,,7/3V51[16:3],,,,6,,7-3[8:1],,
,,8^3[8:1]/7,,,,84,,5-1[8:1],,6,,7-3[8:1]/5,,,,
7/1^6[8:1]*^4[8:1],,,,1,,,,3b/7b,,1b/5b,,4b/8b,,2b/6b,,
3,5,4,6,5,7,2,4,1w5[8:1],,,,1,,,,
2v4[8:1]/6v4[8:1],,,,2-8[8:1]/6-8[8:1],,,,26,,,,26,,1s5[4:1],,
,,5,,6,,7,,8-4[8:1]/6-2[8:1],,,,68,,,,
1b-5[8:1],,,,6,,7,,8b-4[8:1],,,,3,,2,,
1h[8:3]/4h[8:3],,,,,,,,1-5[8:1]/4-8[8:1],,41,,41,,,,
6b/4b,,3,,75,,8,,21,,3,4,3,,52,,
6-3[8:1],,7,,2-5[8:1],,1,,7-3[8:1]*-4[8:1],,8,,7,,,,
35,,6,,24,,1,,78,,6,5,6,,47,,
8-4[8:1],,5,5,8-6[8:1],,1,1,8,,2,,35,,,,
28,,7,,31,,4,,65,,7,8,7,,16,,
2-7[8:1],,3,,6-1[8:1],,5,,3-7[8:1]*-8[8:1],,4,,3,,,,
16,,{24}3,4,3,{16}4,,3/8h[4:1],,,,6,7,4,5,2,3,
1b,,2b-6[8:1]/8b-4[8:1],,4b/6b,,2b/8b,,,,,,,,,,
