&title=Apocalypse
&artist=アリスシャッハと魔法の楽団
&first=-2.73
&des=11番目のさぼてん
&des_5=
&lv_5=13
&inote_5=(73.33){4},,,{16},,,{64},,{128}D6,A5,D5,A4,
{4}D4f,{12}6,5,4,{6}7h[12:1]/3h[12:1],{24}8,1,{32}2h[6:1]/6h[12:1],{16},,,{128}A5,D5,A4,D4,
{6}3xh[2:1],{12}1,1h[6:1],{16},,{96},{128}A1,D1,A8,D8,{4}A7f,{12}2/5,4,4/7,
{6}6h[12:1]/3h[12:1],{12}4h[48:1]/5h[24:1],3h[12:1],4h[12:1],5h[12:1],6h[12:1],7h[12:1],8h[12:1],1h[12:1],2h[12:1],3h[12:1],
{6}4>1[12:1],{24}6,5,{12}4<7[12:1],{24},,2,3,{6}4w8[8:1],{12}5/3,4,{16},,{64},{192},{144}2x,3x,4x,
{8}5x,7/1,{4}3h[6:1]/5h[6:1],{12}6,5,4,3h[4:1],,2,
{6}2h[4:1],{12}1,1h[4:1],,,,8,7,6h[4:1],,5,
{6}5h[4:1],{12}4,4h[4:1],,3,{4}E3f,{12}5>8[4:1],6,7,
{6}8>5[4:1],{12}6,5<2[4:1],6,7,{4}2<5[4:1],5w1[6:1],
{24},,,,,,7,2,{12}1b/8b,8b/1b,{8}4h[12:1]/5h[12:1],{24}6,4,5,{8}3h[8:1],{24}6,4,5,
{8}3h[8:1],{24}6,4,5,{8}3h[8:1],{24}6,4,5,{8}3h[8:1],{24}6,5,4,{8}3h[8:1],{24}6,5,4,
{8}3h[8:1],{24}6,5,4,{8}3h[8:1],{24}6,5,4,{4}3h[8:1]/Cf,{12}8/1-5[12:1],8/1,{24}1/8,2,
{6}3h[6:1]/1>4[12:1],{12}5,1/6<1[12:1],5,5,3/6-2[12:1],4,5,6/8>3[12:1],,6,
{4}8/5,{24}6,3,5,4,5,4,{6}6-4[12:1],{12}1,6/2-6[12:1],,7,
{6}2/8-2[12:1],{12}5,8/4-8[12:1],3,7,{4}4/6-4[12:1]*-8[12:1],6w2[12:1],
6,{24}8h[24:1],7h[24:1],6h[24:1],5h[24:1],4h[24:1],3h[24:1],2>5[12:1],1h[24:1],{12}8h[12:1],,2/7>2[12:1],6,6,
7/4<7[12:1],3,3,4/2<7[12:1],3,3,{4}2/4-2[12:1]*-6[12:1],4w8[4:1],
{2}4,{4}Cf,4xz8[6:1]/5xs1[6:1],
4/5,5/4<3[24:5],{96}4/5>6[24:5],D5f,{16},,,{64},,{96},5/4xw8[12:1],D5f,{16},,,{64},,{96},{4}A4f/D5/D4,
{8}5/3,{24}1,1,1,{18}8h[24:5]/2h[24:5],{72},,,,,,,,,,,,A7/A3,A6/A4,{12}A5,,6,
7bh[4:1]/5bh[4:1],,,,,2,{6}1bh[4:1]/3bh[4:1],{12},,2/5,4/8,
{4}1h[6:1]/6h[6:1],{12}7/2,{24}5,4,{12}5,7/2,1/8,7/2,{24}6>1[6:1]/3<8[6:1],{48}2,7,{24}2,8/1,{12}7/2,
{4}3b/6b,4/5>6[24:5],{96}5/4<3[24:5],D5f,{16},,,{64},,{96},4/5xw1[12:1],D5f,{16},,,{64},,{96},{4}A5f/D6/D5,
{8}4/6,{24}8,8,8,{18}1h[24:5]/7h[24:5],{72},,,,,,,,,,,,A2/A6,A3/A5,{12}A4,,8/2,
{6}8/2>5[12:1],{12}6,6/2,,7/5,4/2h[12:1],4h[12:1],3h[12:1],5h[12:1],4h[12:1],6h[24:13],
{48}2h[24:11],{4},{16},,,{48},B6/B2,{6}C,{12},,5h[12:1],3h[16:9],
{96}7h[48:23],{4},{16},,,{64},,{96},B7/B3,{4}Cf,1w5[12:1],
1,{12}E1,E8,E7,E5,E4,E3,E8,E7,E6,
E4,E3,E2,E1,E8,E7,E6,{24}A5,A4,A3,A2,{4}1xh[6:1],
{12}8h[6:1],E6,A4,7h[6:1],E5,A3,6h[6:1],E4,A2,1/5h[6:1],,,3/E6/B5/E5,
3,3,5/B3/E4/E3,5,5,1/E8/B7/E7,1,1,1h[6:1]/E2/B1/E1,,,4/B7/B6,
4,4,3/B6/B5,3,3,2/B5/B4,2,2,1/B4/B3,1,1,
{4}8/B2/B3/Ch[4:1],{12}7/B1/B2,7,7,6/B8/B1,6,6,5/B7/B8,5,5,
{4}4h[6:1]/Cf/B7/B6,{12}5qq8[4:1],6h[12:1],7,8qq3[4:1],1,2,3>6[4:1],4,5,
{4}6V83[4:1],{12}3V51[4:1],2,1,8,1,2,3h[6:1],{24},,,,1/8<1b[4:1],
2,7,1,{12}8/2,1/8,,,{2}8b/A1f,
{4}E6/A5f/B5/E5,B2/B3/A2/A3/E3f,E8f/A8/A7/B8/B7/C,{8}8/1,{24}A8/A1,A2/A7,A6/A3,
{12}5xh[6:1]/4xh[4:1],,,,,6,{6}2<8[12:1],{12}3,2/6>4[12:1],,7,
6/2,1s5[4:1],8,7/3,1/6h[24:1],4h[24:1],6h[24:11],,,,,3b,
1/8b,8/1b,1/8b,6h[8:1]/3h[8:1],,8x/1x,{96}1bx>4[12:1]/8bx<5[12:1],B8/B1,Cf,B5/B4,{24}A5/A4,,,,,{12}1x/8x>7[24:5],,1/8,
{96}8/1<2[24:5],D1f,{16},,,{64},,{96},1/8xw4[12:1],D1f,{16},,,{64},,{96},{4}A8f/D8/D1,{8}7/1,{24}5,5,5,
{9}4h[24:5]/6h[24:5],{72},,,,,,,,A7/A3,A8/A2,{12}A1,,3,2bh[4:1]/4bh[4:1],,,,,7,
{3}8bh[4:1]/6bh[4:1],{12}7/4,1/5,{6}3/8bh[24:11],1bh[24:7],{72},,,,,,,,,,A7/A2,A3/A6,
{3}A5/A4,{12}4/5,5/4,{2}4qq1[4:1]/5pp8[4:1],
{4}D1f,4-8[8:1]/5-1[8:1],{24}5/4,{48},,,,,,,,7x/2x,3x/6x,{12}4x-1[12:1]/5x-8[12:1],6,3,
{4}4/5,{12}1-5[12:1]/2-5[12:1],1/2,2/1,{4}1/2,{12}8-4-8[4:1]/5<2<5[4:1],8/5,8/5,
{4}8/5,{36}A5,A4,A3,A2,A1,A8,A7,A6,A5,{8}A4f/8bp4[12:1],3h[8:1],{12}8q4[12:1],2,1/7,
{8}8/6,5h[8:1],{36}4,5,3,{12}6,7/2,{24}8h[8:1]/4h[8:1],{48},,,,,,,,3x/7x,6x/2x,{12}1x/5x,8h[12:1]/4h[12:1],,2/6,
8/4,5/1,3h[24:29]/7h[24:29],{1},{16},,{48},B7/B3,
{2}C,
E
