&title=鳥と桜と嘴と
&artist=マッカチン企画
&first=0
&des=青鳥偵探事務所
&lv_1=0
&lv_5=13+
&inote_1=
&inote_5=(180)
{8},,,,,,,,8bqq4[8:5],8b,,,2,,2,,
3,,3,,5pp4[16:5],,2,,
1bpp5[8:5],1b,,,7,,7,,
6,,6,,4qq5[16:5],,7,,
7,7-3[8:1],1,1,2,2-6[8:1],8,8,
7,7-4[8:1],1,1,2,2,6,6,
{16}5,7,5,7,4,6,4,6,3,5,3,5,2,4,2,4,
1h[8:3],,,,,,8,,8-4[8:1],,,,8/3,,,,
{8}5-1[8:1]/6-1[8:1],,,,4-8[8:1]/3-8[8:1],,,,2h[8:1]/6,7,8/2,3,7h[8:1]/4,,4,3,2h[8:2],,,
{16}8,7,6,,3h[8:2],,4,,4,,
7h[8:1],,6,,4h[8:1],,5,,3/6,,2/5,,1-5[8:1]/4,,,,
1/7,,,,7-4[8:1],,,,3/7,,{8},2,,
7h[8:1]/3,2,1/7,6,5/2h[8:1],,5,6,
7h[8:2],,,{16}1,2,3,,6h[8:2],,5,,5,,
2h[8:1],,3,,5h[8:1],,4,,6/3,,7/4,,8-4[8:1]/5,,,,
8/2,,,,2-5[8:1],,,,2/6,,,,8,,,,
7h[8:1]/2,,3,,4h[8:1]/8,,7,,3/6h[8:1],,,,4>1[8:1],,6,,
7h[8:2],,,,,,1,7,1,,6h[8:2],,2,,2,,
3h[8:1],,4,,7h[8:1],,6,,4/8,,3/7,,2-6[8:1]/6,,,,
2/7,,,,8-4[8:1]/4,,,,8/3,,,,2,,,,
6h[8:1]/1,,2,,3/7h[8:1],,4,,6/3h[8:1],,,,5<8[8:1],,3,,
2h[8:2],,,,,,8,2,8,,3h[8:2],,7,,7,,
6h[8:1],,5,,2h[8:1],,3,,1/5,,2/6,,3/7,,,,
4,,,,4qq8[8:5],,,,6,,,,6,,,,
7,,,,7qq3[8:5],,,,2,,,,2,,,,
1,,,,1pp5[8:5],,,,7,,,,7,,,,
6,,,,6pp2[8:5],,,,2,,,,2,,,,
3,,,,3pp7[8:5],,,,6,,,,6,,,,
5,,,,5pp1[8:5],,,,1,,,,1,,,,
2,,,,2qq6[8:5],,,,5,,,,5,,,,
5pp6[8:4]*qq4[8:4],,,,,,,,,,,,,,,,
6,,,,1/5,,6,,2qq5[8:3]/7,,,,6,,,,
7,,,,8,,3,,7qq4[8:3]/2,,,,3,,,,
2,,,,1-5[8:1],,6,,1pp6[8:3],,,,6,,,,
7,,,,8-4[8:1],,3,,8qq5[8:3],,,,3,,,,
4,,,,4qq1[8:3],,6,,7-4[8:1]/4,,,,7,,,,
2,,,,8qq5[8:3],,2,,8/3-8[8:1],,,,3,,,,
6,,,,2/6,,1/5,,8/4,,,,4<7[8:1]/8>3[8:1],,,,
4pp5[8:3]/8pp1[8:3],,,,,,,,,,,,,,,,
1>4[8:1]/5<8[8:1],,,,1-6[8:1]/5-2[8:1],,,,5-1[8:1],,,,,,3,,
,,8/2,,3-8[8:1]/7-4[8:1],,,,3/7,,,,5,,,,
2-5[8:1],,2,,1,,8,,7-4[8:1],,7,,8,,1-4[8:1],,
,,5,,5-8[8:1],,,,2[8:2],,,,3h[8:1],,,,
8<5[8:1]/4>1[8:1],,,,8-3[8:1]/4-7[8:1],,,,4-8[8:1],,,,,,6,,
,,7/1,,2-5[8:1]/6-1[8:1],,,,2/6,,,,4,,,,
7-4[8:1],,7,,8,,1,,2-5[8:1],,2,,1,,8-5[8:1],,
,,,,4-1[8:1],,,,6,,,,,,,,
1>4[8:1]/5<8[8:1],,,,5v6[8:1]/1v2[8:1],,,,1s5[16:3],,,,,,6,,
,,4/8,,3-8[8:1]/7-4[8:1],,,,3/7,,,,5h[8:1],,,,
2>5[8:1],,2,,1,,8,,7<4[8:1],,7,,8,,1>4[8:1],,
,,5,,5<8[8:1],,,,3,,,,7h[8:1],,,,
4>1[8:1]/8<5[8:1],,,,8v7[8:1]/4v3[8:1],,,,8z4[16:3],,,,,,3,,
,,5/1,,6-1[8:1]/2-5[8:1],,,,6/2,,,,4h[8:1],,,,
7<4[8:1],,7,,8,,1,,2>5[8:1],,2,,1,,8b-5[8:1],,
,,3,,2,,,,1,8,1,8,1,8,1,8,
2h[8:1],,,,8-4[8:1],,3-8[8:1],,8,,3,,7-3[8:1],,1-5[8:1],,
7,,1,,7b>2[8:1],,,,7/6,,,,5-1[8:1],,,,
5/2,,,,4-1[8:1],,,,4-7[8:1]/6,,,,4>5[8:3]/2,,,,
4,,,,,,,,8z4[16:3],,,,8/1,,,,
2,,2-5[8:1],,,,8/2,,8w4[8:1],,,,8,,,,
2,,2-5[8:1],,,,8/2,,8w4[8:1],,,,8b,,,,
2,,2-6[8:1],,,,6,,7,,8-4[8:1],,,,3,,2,,1,,1,,,,8,1,8,2,8,1,8,2,
8h[8:2],,,,1-5[8:1],,6-1[8:1],,1,,6,,2-6[8:1],,7-4[8:1],,
2,,7,,1b<6[8:1],,,,2/1,,,,1-5[8:1],,,,
6/1,,,,8-5[8:1],,,,8-3[8:1]/2,,,,8>7[8:3]/6,,,,
8,,,,,,,,1s5[16:3],,,,8/1,,,,
7,,7-4[8:1],,,,1/7,,1,,1h[8:2],,,,5-1[8:1],,
,,1/5,,2,,3,,,,8,4,7,3,6,2,
5-8[8:1]/1-4[8:1],,,,5/1,,,,3-8[8:1]/7-4[8:1],,,,3/7,,,,
1>4[8:1]/5<8[8:1],,,,1/5,,,,1-5[8:1]/5-2[8:1],,,,1>5[8:3]/5,,,,
6,,,,6,,7,,8,,8,,1,,1,,1,,8,,1,8,1,7,1,8,1,7,1-5[8:1],,,,
7-4[8:1]/1,,,,3-8[8:1]/7,,,,5-1[8:1]/3,,,,2-5[8:1]/5,,,,6-1[8:1]/2,,,,2-5[8:1]/6qq8[8:7],,,,
2b>8[8:5],,,,,,,,
,,,,,,,,1,8,2,7,1,8,2,7,
{8}1-5[8:1],,1/4,,4-8[8:1],,5/4,,
2h[8:1]/6,7,8/2,3,7h[8:1]/4,,4,3,2h[8:2],,,
{16}8,7,6,,3h[8:2],,4,,4,,
7h[8:1],,6,,4h[8:1],,5,,3/6,,2/5,,1>4[8:1]/4,,,,
1/7,,,,7p3[8:1],,,,3/7,,{16},,2,,,,
7h[8:1]/3,,2,,1/7,,6,,5/2h[8:1],,,,4/5,,6,,
3b,7,3,7,3,7,2b,6,2,6,
2,6,1b,5,1,5,1,5,1,6,1,7,1,8,1,,2/7,,3/6,,4b/5b,,
{8}6,4,5,3,,2,7,1,
8,{8}1,,1/8,1s5[8:1]/8,,1/8,,,,
&inote_6=
