&title=仄く月と電波塔【修正版】
&artist=佐藤乃子
&first=0.09999999
&des=九号末班車
&des_5=
&lv_5=13
&inote_5=(123){4},{16},,,,,,,,,,E6,E5,
{8}E4,,,,,,,E8,
C,E6,,,,,,,,,,,,8,
{4}8<5[8:1],
1h,4-7[8:1],3h,{8}8-5[8:1],1,
,3,{4}4q8[8:1],6h[4:1],{8}1,2,
{4}3xh[4:1],{8}8,7,{4}6xh[4:1],{8}2,3,
4xh[4:1],5xV36[4:1],,,,2,1>4[8:1],8,
{4}1h,{8}5-2[8:1],4,{4}6h,{8}1-4[8:1],8,
,6,5p1[8:1],4,{4}3h[4:1],{8}8,7,
{4}6xh[4:1],{8}1,2,{4}3xh[4:1],{8}7,6,
5xh[4:1],4xV63-7[8:3],,,,,8,7,
{4}6-4[8:1],3-6[8:1],6-4[8:1],7-3[8:1],
3,{24}A2,A3,A4,6xh[8:1],,,{8}5,7,6-4[8:1],4,
{4}2-6[8:1],6-4[8:1],8s4[4:1],2,
{8}1,3,5/4V62[4:1],6,{4}7,{8}1,2,
{4}3x-5[8:1],6-3[8:1],3-5[8:1],2-6[8:1],
6,{8}7,3xh[8:1],4,2,3-5[8:1],5,
{4}7-3[8:1],3-5[8:1],{8}1z5[4:1],2,6,7,
{2}8q4[8:1]*>4[8:1],{8}1,2,3,4,
{4}5b/7-3[8:1],{8}2,1,8-4[8:1],{16}7,1,{8}8,3V52[4:1],
4,3,7v4[8:1],8,{4}4,{8}2/4-7[8:1],5,
{4}6/4,{8}2/4q8[8:1],5,{4}6/4,{8}2/4-8[8:1],6,
{2}4/8-3[8:1]*-4[8:1],{8}5/7p3[8:1],3v8[8:1],7,2,
{4}1b>4[8:1],7/1<6[8:1],3/1p5-2[4:1],{8}5,7-2[8:1],
,7/1,3v8[8:1],5,{4}3,{8}6/8-3[8:1],1,
{4}2/8,{8}6/8q4[8:1],1,{4}2/8,{8}6/8-4[8:1],2,
{2}8/4-7[8:1]*-8[8:1],{4}1/3V52[4:1],{8}5,6,
8b,5/6h,{16}7,7,5h,6,{8}4xh[8:1],{24}1xh,2xh,3xh,{4}4xh[8:1],
{16}1,6,5,7,3,3,4,2,{8}1xh[8:1],3x,5/7xh[8:1],3x,
{2}8xh[8:1]/1xs5[8:1],{8}5xh[8:1],{24}8xh,7xh,6xh,{8}5xh[8:1],4x,
{16}2,4,3,8,5,6,1,5,3,3,4,2,7,7,5,6,
{8}1b,4/3h,{16}2,2,4,3,{8}5xh[8:1],{24}8xh,7xh,6xh,{4}5xh[8:1],
{16}8,3,4,2,6,6,5,7,{8}8xh[8:1],6x,4/2xh[8:1],6x,
{2}1xh[8:1]/8xz4[8:1],{8}4xh[8:1],{24}1xh,2xh,3xh,{8}4xh[8:1],5x,
{16}6,5,5,7,1,8,4,5,2,1,4,5,3,2,5,4,
{2}7-2[8:1]/3-6[8:1],1-5[8:1],
1-5[8:1],6-8[8:1]/4-2[8:1],
{8}1,2,7,6,2,3,6,5,
{32}3,4h[32:3],,,,,,,3/6,4h[32:3]/5h[32:3],,,,,,,{8}2pp4[8:1]/7qq5[8:1],6/3,{16},,,,2-7[8:1]/6-3[8:1],
,,7x/3x,,,,,8-4[8:1],,,1x/5x,,,,,8-4[8:1],
,,7x/3x,,,,,3-1[8:1]/5-7[8:1],,,2x/6x,,,,,{8}8,
7,6/1,2,3/7,6,5/2,3,
4/5,6,4/5,3,5s1[16:3]/4z8[16:3],7/2,,,2x/6-2[8:1],
4xh[8:1],,,4h[8:1]/1<6[8:1],{16}E6,E5,{8}E4,2,
1-4[8:1],4-2[8:1],{4}1,4h[8:1],4h[8:1]/1h[8:1],
{8}7x/3-7[8:1],5xh[8:1],,5<8[0.4829##0.239],,E2,E3,E4/1-5[8:1],
{16}3,3,{8}1,{16}2,6,2,8,{24}3x,4x,3x,5x/2xv5[8:1],{48},,,,{16}1x,1,8,7,
6V47[16:3],,,5,{8}6,3,1h[8:1],7,3h[8:1]/5-1[8:1],7,
1,{24}2x,8x,2x,{8}8x,7/3,5x/6-3[8:1],3-7[12:1],6x,1,
8,{16}6,5,,3,1,1,{8}2-5[8:1],{16}5,5-3[8:1],,,{8}6,
7h[8:1],{16}2,5,{8}4h[8:1],6,4/5h[8:1],3,4h[8:1],6,
{4}8z4[4:7],E4,,E3,
,E2,,E1,
1>8[4:7],E6,,E7,
,E8,,E1,
5b-3[8:1],{8}7,6,{4}5-1[8:1],{8}1,3-5[8:1],
,6,7,8,{4}1h[4:1],{8}2,3,
{4}4v3[8:1],{8}7,6,{4}5pp6[16:3],{8}1>4[8:1],3,
5h,7h,4h,3h,5/4,5/6,8/7,1/2,
{4}3b/2-6[8:1],{8}4,3,1-5[8:1],{16}2,8,{8}1,6V47[4:1],
5,6,2v5[8:1],1,{4}5,{8}7/5-2[8:1],4,
3/5,4,7/5p1[8:1],4,3/5,4,7/5-1[8:1],3,
{2}5/1-6[8:1]*-5[8:1],{8}4/2q6[8:1],6v1[8:1],2,7,
{4}8b<5[8:1],2/8>3[8:1],6/8q4-7[4:1],{8}4,2-7[8:1],
,2/8,6v1[8:1],4,{4}6,{8}3/1-6[8:1],8,
7/1,8,3/1p5[8:1],8,7/1,8,3/1-5[8:1],7,
{2}1/5-2[8:1]*-1[8:1],{4}8x/6xv7-4[4:1],{8}4,3,
{1}1b,
E
