&title=Won(*3*)Chu KissMe!
&artist=SAKURA*TRICK
&des=1就
&wholebpm=153
&first=0
&lv_1=
&lv_2=
&lv_3=
&lv_4=9
&lv_5=10+
&lv_6=
&inote_1=
&inote_2=
&inote_3=
&inote_4=
(153){1},
{8}
2/5,,,3/6,,,4/7,,
1bpp4[2:1]/8bqq5[2:1],,,,,,,,
4/5,,2,,4/5,,7,,
4/5,,1,,4/5,,8,,
1/8,,3,,1/8,,6,,
1/8,,4,,1/8,,5,,
2>5[8:1],,8,,7<4[8:1],,1,,
2>5[8:1],,8,,7<4[8:1],,1,,
3-8[8:1],,5,,6-1[8:1],,4,,
5,4/6,,3/7,,2/8,,,
1,,2,2,,3,,8,
,8,7,6,5,,,,
8,,7,7,,6,,1,
,1,2,3,4,,,,
1/2,,3/8,3/8,,3,,8/1,
,8,7,6,5,,,,
8/7,,1/6,1/6,,6,,1/8,
,1h[4:1],,8,,,,,
4,,3,3,,2,,5,
,5,6,7,8,,,,
5,,6,6,,7,,4,
,4,3,2,1,,,,
4/3,,2/5,2/5,,6,,8/1,
,8,7,6,5,,,,
5/6,,4/7,4/7,,3,,1/8,
,8h[4:1],,1,,,,,
4/5,,3,3,,6,,6,
,,,,1,8,2,7,
3,,6,6,,4,,4h[8:7],
5,,5,,5,,5,,
4h[8:5],,6,6,,7,,5h[8:6],
,,3,3,,2,,,
1h[1:1]/8h[1:1],,,,,,,,
,1,2,3,4,5h[8:6],,,
4h[8:3],,,,,,,,
1/8,7/2,1/8,7/2,,,,,
4/5,,2,2,,4/5,,4/5,
,3,2,1,8,,8,,
4/5,,7,7,,4/5,,4/5,
,7,8,1,2,,2,,
4/3,,2/5,2/5,,6,,8/1,
,8,7,6,5,,,,
5/6,,4/7,4/7,,3,,1/8,
,,4/5,,1/8,,4/5,,
4/5,,1/8,1/8,,3/6,4/5,3/6,
{12}1,,2/8,,3/7,,4b/6b,,,,,,
{8}4/5,,2,2,,4/5,,4/5,
,3,2,1,8,,8,,
4/5,,7,7,,4/5,,4/5,
,7,8,1,2,,2,,
4/5,,2,2,,1/8,,1/8,
,2/7,2/7,,4/5,,,,
2>5[8:1],,8,,7<4[8:1],,1,,
2>5[8:1],,8,,7-3[8:1],,1,,
4b/7,,,3b/6,,,2b/5,,
1bpp4[2:1]/8bqq5[2:1],,,,,,,,
{16}1,,2,,3,,5,4,,4,5,,4/5,,4/5,,
8,,7,,6,,5,,4,,3,,2,,1,,
8,,7,,6,,5,4,,4,5,,4/5,,4/5,,
1,,2,,3,,4,,5,,6,,7,,8,,
1,,2,,3,,5,4,,4,5,,4/5,,4/5,,
5,,6,,7,,8,,1,,2,,3,,4,,
8,,8,,1,,1,8,,8,1,,1/8,,1/8,,
{8}
,4b/5b,,,1b/8b,,,2b/3b,
,,7b/6b,,,4b/5b,,4b/5b,
,,,,,,,,
{1},,,,,,,,,
E
&inote_5=
(153){1},
{8}1b,,,1b,,,1b,,
5pp5[4:1]*qq5[4:1],,,,,,27,,{16}
6,,4,,8,,2,1,2,1,2,,4,,1,,
5,,3,,7,,1,8,2,7,2,7,3,6,4,5,
3,,5,,1,,7,8,,8,7,,5,,8,,
1,,8,,7,,6,,4,6,4,6,3,7,2,8,
1,,6,,78,,1,8,,8,2,,6,,7,,
8,,3,,12,,8,1,7,2,7,2,6,3,5,4,
6,,3,,6,,4,5,,5,4,,6,,3,,
6,,18,,,,18,,,,18,,6,3,6,,
{8}
4V68[4:1]/5V71[4:1],,,,,,1,2/8h[4:1],
,3,21,,7,6,45,3,
4V28[4:1]/5V31[4:1],,,,,,8,7/1h[4:1],
,6,78,,7,2,{16}8,1,8,1,{8}
7p3[4:1]/2p6[4:1],,,,,,5,4/6h[4:1],
,3,45,,4,6,2,8,
1,,18,,,26,,35,{16},,17,,,,5,4,
3h[999:1]/6h[999:1],,2h[999:1]/7h[999:1],,
1h[999:1]/8h[999:1],,,,{8}
46,,3,5<1[4:1],,1p5[4:1],,5<1[8:3],
,,2,3,4,4,{16}2,5,3,6,{8}
4,,6,8>4[4:1],,4p8[4:1],,8>4[8:3],
,,5,6,7,8,{16}6,1,7,2,{8}
8,,1,8>4[4:1],,4<8[4:1],,8p4[8:3],
,,4,3,2,1,{16}8,2,7,1,{8}
6,,3,24,,13,,8,
12,47,38,56,{16}8,3,5,2,7,4,6,1,{8}
8b,,8,,8,,8,1pp6[8:3],
7,,7,,7,,7,,
45,,4,,4,,4,5pp8[8:3],
3,,3,,3,,2,2,
4v1[8:1]/3v8[8:1],,,,8-5[8:1],,8,,
1s5[4:1],,5s1[4:1],,,,,,
6,4,8,2,5,3,7,1,
8,1,2,3,45,36,27,,
1b/8,,1,2b/3,,,6b/7,,
15,26,37,48,{16}7,3,6,2,{8}1/5b,,
7V58[4:1]/1V38[4:1],,17,,,2-5[8:1]/6-1[8:1],,26,
,6-4[8:1],4-8[8:1],6,,{16}1,2,3,,5,4,{8}
7b,,16,7-3[8:1]/8-4[8:1],,78,,25,
,47,25,36,18,{16}7,6,5,6,5,4,{8}
3/5b,,26,1/7V14[4:1],,4V62[4:1],,,
,1,1b,,45,{16}6,5,6,,3,4,{8}
3<8[4:2],,2,,3,,4,,
5>8[4:2],,6,,5,,4,,
15,,1,1b,,26,37,48,
{16}37,,,15,,,37,,{32}1,2,3,4,5,6,7,8,{8}1b/5b,,
2V41[4:1]/8V61[4:1],,28,,,3-8[8:1]/7-4[8:1],,37,
,3-5[8:1],5-1[8:1],3,,{16}8,7,6,,4,5,{8}
2b,,38,1-5[8:1]/2-6[8:1],,12,,47,
,25,47,36,18,2b,3b,4b,
1/7-3[8:1],,7,1pp3[8:1]*qq7[8:1],,,,28,
,4,35,26,17,{16}8,1,8,1,8,1,{8}
8^3[4:1],,3q8[4:1],,8q5[4:1],,5^8[4:1],,
8>4[4:1],,4qq7[8:3],,,,,,
1b,,,1b,,,1b,,{1}
5>6[4:2]/4h[4:3],{16}
6,,4,,8,,2,1,,1,2,,4,,1,,
5,,3,,7,,1,8,2,7,2,7,3,6,4,5,
3,,5,,1,,7,8,,8,7,,5,,8,,
1,,8,,7,,6,,4,7,1,6,3,5,2,8,
1,,6,,78,,1,8,,8,2,,6,,7,,
8,,3,,12,,8,1,7,2,7,2,6,3,5,4,
6,,3,,6,,4,5,,5,4,,6,,3,,
{8}6,25,1,8,27,6,5,47,
3,2,14,8,7,16,25,7h[8:1]/8h[8:1],
{1},
E
&inote_6=
