&title=Der Richter
&artist=Omega
&first=0.21
&lv_5=14
&des=WYBXXJ
&inote_5=
(192){4},,,,{1}2h[1:2],
,7h[1:2],
{8},,,,,,,,2h[1:2],
E6,{4}E5,{8}E1,E8,{4}E7,
{8}E8,B7,B6,E6,,E1,C,E5,
7h[1:2],E4,{4}E3,{8}E1,E2,{4}E3,
{8}E2,B2,B3,E4,,E1,C,E5,
2,3,{4}4,{8}7/3h,6,{4}5,
{8}5/2h,6,7,8,1h,2,{4}3,
{8}7/3h,6,{4}5,{8}2/6h,3,{4}4,
{8}4/7h,3,2,1,8h,7,6,5,
4/8h,3,{4}2,{8}5/1h,6,{4}7,
{8}6/2h,7,8,1,2h,3,{4}4,
{16}1,8,1,8,1,8,1,8,1,8,1,8,1,8,1,8,
{4}1b,{8}2b/7b,{16}3b,4b,,6b,{8}5b,{16}1,8,1,8,
{4}2b/7b,{8}3/7,4,5,4,{4}3/7,
{8}2/6,5,4,5,{4}6/2>5[8:1],2/7,
8/1,{8}6/2,5,4,5,{4}6/2,
{8}7/3,4,5,4,3/7-4[8:1],7/3,{4}2b/7,
{8}8/1,{16}6,5,{8}6,{16}3,4,{8}3,{16}6,5,{8}7,{16}3,4,
{8}2,{16}6,5,{8}8,{16}3,4,{8}1,{16}2/7,3/6,{4}4/5,
{8}4/5,{16}2,1,{8}2,{16}7,8,{8}7,{16}2,1,{8}3,{16}7,8,
{8}6,{16}2,1,{8}4,{16}7,8,{8}5,{16}6b/3b,7/2,{8}8/1,4b,
{4}6/2b>5[8:1],{8}2,7-4[8:1],1-5[8:1],7,{4}1>4[8:1],
{8}1,5<8[8:1],1,5,2-5[8:1],6,{4}2,
3/7<4[8:1],{8}7,2-5[8:1],8-4[8:1],2,{4}8<5[8:1],
{8}8,4>1[8:1],8,4,8,{16}6b,5,6,5,{8}6,
{4}8/3-5[8:1],{8}3/8,8,2-5[8:1],7,{4}2/7,
{8}6/1-5[8:1],6,1,7,8/1,{16}2/7,3/6,{4}4/5,
{8}1/6-4[8:1],1,6,1,7-4[8:1],2,7,2,
{16}8,1,8,1,8,1,8,1,{8}8bw4[8:1],6/2,{4}8b,
{16}6b,5,3,4,6,5,3,4,{8}7x-4[8:1],7,{4}7/2,
{16}2x,3,5,4,2,3,5,4,{8}2x-5[8:1],2,{4}2/7,
{16}7x,6,4,5,7,6,4,5,8-4[8:1],2,8,2,{4}8,
{16}1x,2,8,7,1,2,8,7,{8}1-5[8:1],6h[16:1],1/6,7,
{16}2,5,3,4,2,5,3,4,{8}2x-5[8:1],2,{4}2/8,
{16}7x,4,6,5,7,4,6,5,{8}7x-4[8:1],7,{4}7/1,
{16}1x,6,5,6,1,6,5,6,{8}2-5[8:1],2,2/8,8,
{16}7b,5,7,5,{8}7,1,{16}2/8,,,3/7,{8}3/7,4/6,
(96){4}3/5<8[8:1],5/2>5[8:1],{32}6/2-6[8:1],,,6,,,{16}6,{4}2/7>6[4:1],
7h/3h[8:1],2<3[4:1],2h/6h[8:1],{16}6,{32}8/1,7/2,{16}6/3,5,
(192)1b,8,1,8,1,8,1,8,1,2,3,4,{8}5/6,6/5,
4/7,8/3,2/1,{16}3,4,2,4,1,4,1,5,1,6,
{8}1b,2/8,3b/7,4/6,8b,7/1,6b/2,5/3,
{16}1b,8,1,8,2b,7,2,7,1b,,,2b/6b,,,{8}3b/7b,
{32}8b/1bq3[2:7],7/2,6/3,4/5q7b[32:109],{1},,,{4},,,{16},,{1}2h[1:1],
4h[1:1],
6h[1:1],
{8}8h[8:7],,,,,1,2,3,
{16}4b>6[4:3],,,,,,,5,,,,,{4}6>8[4:3],
{8},7,,,{2}8<4[2:1],
{8}4<2[4:3],,,3,,,{4}2b>8[4:3],
{8},1,,,{2}8-4[4:1],
{8}5b<3[4:3],,,4,,,{4}3b<1[4:3],
{8},2,,,{2}1>5[2:1],
{8}5b>7[4:3],,,6,,,{4}7<1[4:3],
{8},8,,,{2}1-5[4:1],
2bh[1:1],4b,
{4}7bh[1:1],5,{2}5b,
2bh[1:1],8b,
{8}7bh[1:1],5,{4}5b,{8}1,1,1b,1,
{4}2b-5[8:1],2/1,7-4[8:1],7/8,
2b>5[8:1],2/1,{8}7<4[8:1],7,8,1h[16:1],
2/7,5/6,7/2,4/3,{16}6,3,{24}5,4,5,{16}4,5,3,6,
{2}2b,1bh[2:1],
{8}7b,{16}3,4,,4,{8}3,2/5,{16}6,5,,5,{8}6,
7/3,{16}2,1,,1,{8}2,{4}2/7-4[8:1],{8}7/3,2,
2b/7,{16}6,5,,5,{8}6,7/2,{16}3,4,,4,{8}3,
2/6,{16}7,8,,8,{8}7,{16}7/2-5[8:1],,,6,{8}2,7,
{16}8bx/4bx,7bx/3bx,6bx/2bx,5bx/1bx,{4}4bx/8bx,{8}8/1-5[8:1],2,1/7-3[8:1],6,
7/1,{16}2,2,,7,{8}7,1/5,2/6,3/7,4/8,
2/7,{16}6,5,{8}6,7/4,{16}3,4,{8}3,2/5,1/6,
8/7<4[8:1],1,7-3[8:1],2,7,2,{16}1b,1b,1b,1b,
{4}1b-5b[8:1],7b/1b,{8}2/6,{16}3,4,,6,{8}5,
{4}6/2-5[8:1],{8}2,{16}8,7,{8}6,{16}3,4,,4,{8}3,
2/6,{16}7,8,{8}7,8/3,{16}2,1,{8}2,4/8,{16}3bx/7bx,2bx/6bx,
{4}1bxq5[8:1]/5bxq1[8:1],1b<6[8:1],{16}1bx>4[16:1],,,1b-5[16:1],,,{8}1b,
2b,{16}2,4,,4,{8}3,{4}2-5[8:1]/6-1[8:1],2/6,
7-4[8:1]/3-8[8:1],7>2[8:1]/3<6[8:1],3-7b[8:1]/7-3b[8:1],7b/3b,
{8}1b/5,1/6,1/7,1/8,4/8,8/3,8/2,8/1,
{16}2b,7,2,7,1,8,1,8,{32}2,3,4,5,6,7,8,1,2,3,4,5,6,7,8,1,
{8}2b>5[8:1],{16}8,7,{8}2<7[8:1],{16}7,6,{8}2-6[8:1],{16}6,5,{8}2,8,
{16}7<4[8:1],8,7,8,{8}7,1,{16}2>5[8:1],1,2,1,{8}2b,8b,
7b<4[8:1],{16}1,2,{8}7>2[8:1],{16}2,3,{8}7-3[8:1],{16}3,4-1[16:1],{8}7,4,
8b,8b,{16}6,5,7,5,{8}8,{16}3,4,3x,4x,{8}3x,
{4}8<4[4:1],{16}4,3,2,1,{4}8>4[4:1],{16}4,5,6,7,
{8}8h[8:1],{16}1,8,1,7,1,6,2,6,2x,6,3,7,3x,7,
{8}1b,{16}6,5,6,5,{8}6,{16}2,1,2,1,{8}2,3/8,
4/7,7/4,5b/2b,2/5,{16}3,6,4,5,4,6,3,6,
2,4,2,4,{8}2,{16}7,5,7,5,{8}7,{16}3,4,3,2,
{8}3,{16}6,5,6,7,{8}6,{12}2,3,4,5/3,4,5,
{8}6<3[8:3],,,4h[16:1],4>6[8:3],,,5h[16:1],
5<3[8:3],,,4h[16:1],{4}4-8[8:1],4bh,
{8}2/6,6/2,4/8,8/4,8/4,7/3,2/6,1/5,
2/7,2/7,6/5,5/6,7/1,1/7,3/4,4/3,
{16}1,5,3,7,2,6,4,8,{32}1,2,3,4,5,6,7,8,1,2,3,4,5,6,7,8,
{1}1bw5b[2:1],
{8}2b/7bh[1:2],3,{4}4,{8}2,3,{4}4,
{8}1,2,3,4,2,3,{4}4,
{8}2bh[1:2],6,{4}5,{8}7,6,{4}5,
{8}8,7,6,5,7,6,{4}5,
{8}7bh[1:2],4,{4}3,{8}4,3,{4}2,
{8}1,2,3,4,5,4,{4}3,
{12}3b,4b,5b,6b,,,,,,,,,{1}C,
E
