&title=点心爛漫!ふぁんはおれ
&artist=La prière
&first=0
&des=Ars1band
&lv_5=13
&inote_5=(159)
{1},,
{1}1bw5b[8:5],
{2}2h[8:3]/7h[8:3],5h[8:3]/6h[8:3],
4h[8:3]/8h[8:3],{4}12,23,
{2}3/4-7[8:1],1/8-3[8:1],
{4}4-6[8:1],4-1[8:1]/3,48,C,
{8}7h[2:1],,5,5,5h[2:1],,4,4,
{4}4^1b[4:1],1^6b[4:1],6^3b[4:1],2q8^1-5[8:7],
{1},{4}D1,A7/E8/D7,A3/E4/D3,C/B2/B6,
{8}7bx^4[8:1]/8bx,,4,3,2-6[8:1],,6,7,
8h[8:1]/1,2,3h[8:1]/4,6,8h[8:1]/1,2x,2x,,
4-7[8:1]/5,,3,2,1^6[8:1],2,31,,
{16}3,,6,5,6,,{8}81,6-4[8:1]/4-1[8:1],7,64,,
{8}2b^5[8:1]/8b,,5,6,7-3[8:1],,3,2,
1h[8:1]/8,7,6h[8:1]/5,3,1h[8:1]/8,7x,7x,,
{16}26,,3,4,3,,{8}17,6h[8:1],5h[8:1],4h[8:1],2h[4:1],
,5,37,4,1bp4[8:1]/7bq4[8:1],,,,
{4}5h[4:1]/6h[4:1],,B7/E7,B4/E5,
3h[4:1]/8h[4:1],,B4/E5,B7/E7,
2h[4:1]/1,,2h[4:1]/1,,
2-4[8:1]/4-6[8:1],,{8}A6/B6,A5/B5,A4/B4,A3/B3,
{4}E7,E1,7-2[8:1],1^4[8:1],
6qq4qq2[16:7],6^1[16:3],,E1,
2xpp5[16:5],,6xpp5[16:4],{8},4x>5[16:8],
,E1,E8,E7,E6,,Cf,,
{8}3h[4:1],,4,{16},6,{8}6h[8:3],8,1,2,
{8}2h[4:1],,4,{16},7,{8}7h[8:2],1x,1x,,
4h[4:1],5,6h[4:1],5,3h[4:1],5,7h[4:1],5,
{4}2x^5[8:1],1b/2b,2x^5[8:1]/1xq5[8:1]
,1b/2b,
{8}5bx/7bx,,8p3b[8:1],{16},2,{8}8,1h[8:2],5,6,
{4}7V15[8:3],3-5[8:1],,{8}4,3,
{16}2h[8:1]/8,,4,3,5,,6,,7h[8:1]/1,,5,6,4,,8,,
4xh,,5,3,4xh,,6,2,4xh,,7,1,{4}4x-8[8:1],
{1}4b<4b[4:5],{4},,{16}D6,D7,D8,D1,{4}D2,
{4}3^5[8:1],6h[4:1],7^1[8:1],2h[4:1],
3^6[8:1],8h[4:1],{8}7-1[8:1],7-5[8:1],,,
{8}4-2[8:1],,5-7[8:1],5,4-2[8:1],,5-7[8:1],5,
1-3[8:1],1,8-6[8:1],8,1-5[8:1],,6V42[24:5],,
8,,1V75[24:5],,4,,2,2x-6[6:1],
,6x-4[8:1],4xw8b[8:1],8x,,,Cf,,
{16}8/2-5[8:1],,,1,2,,7,,4/6-1[8:1],,,5,6,,3,,
{8}2^7[8:1],,2-5[8:1]/4-8[8:1],,24,,
7/1-6[8:1],2,31,,7/1-5[8:1],2,31,,6x/4xqq3[24:5],,
4xpp4b[4:1],,4x-1[8:1]*-8[8:1],,,,C,,
8-4[8:1]/2,8,4,3,2-6[8:1],2,6,7,
8-6[8:1],4-2[8:1],8-4[8:1],4,8,1x,1x,
{16}6,5,{8}7^2[8:1],7,3^6[8:1],3,8-5[8:1],8,,
2xpp1[4:1],,1x,8x-5b[8:1]*-4[8:1],7x,8b,,Cf,,
{16}1/7-4[8:1],,,8,7,,2,,5/3-8[8:1],,,4,3,,6,,
{8}6-1[8:1],2-6[8:1],6V41[16:4],2,7,,
8-3[8:1],7,68,,2/8-4[8:1],7,68,,{4}8x^5[8:1]/4x^1[8:1],
8xq4[8:1]/4xq8[8:1],8x^5b[8:1]/4x^1b[8:1],8x/4x,C,
{16}1-5[8:1]/7,,,6,6,,7,,7-3[8:1],,4,4,7,,2,,
{8}2-8[8:1],7-4[8:1],2-6[8:1],7,2,5x,5x,,
{4}3^8b[8:1]/8,6^3[8:1]/3,1^6b[8:1]/6,41,
2q6[8:1],2,2q6b[8:1]/1v6b[8:1],12,
7h[16:3]/8h[16:3],78,{16}57,,,45,,,
2/4pp4[16:8]*qq4[16:8],,
{4}1b/8b,,,B4f,
{8}6h[8:1],,6h[8:1]/D4,E3,D2/6h[8:1],,6h[8:1],,
6h[8:1]/D4,E3,D2/6h[8:1],,6h[8:1]/8,8,6h[8:1]/1,1,
2h[8:1],4h[8:1],5h[8:1],7h[8:1],3h[8:1],4h[8:1],5h[8:1],6,
{4}6-8[8:1],4-7[8:1],4-1[8:1]*-2[8:1],,
7b-5b[8:1]/8b,7/8-4b[8:1],7-5b[8:1]/8,7/8-4b[8:1],
7-5b[8:1]/8,7/8-4b[8:1],7-5[8:1]b/8,7/8,
6h[8:1]/4-8b[8:1],6h[8:1]/4-2b[8:1],
6h[8:1]/4-8b[8:1],6h[8:1]/4-2b[8:1],
7b-5b[8:1]/4b,1b-6b[8:1]/7b,4bw8b[8:1]/1b,{8},
{24},2x,3xqq6[24:31]*qq6[24:31],
{8}4x,,,,,,,E5,,,,,,,,,
6pp3[8:10],,,,,,,B5/B4,,,,,{16}E1,E2,E3,E4,E5,,,,
{8}7,6,5,4,,,8,,6,5,4,3,,,1,1h[8:5],
{2},6-8[6:1],4-2[6:1]*-2[6:1],5-1b[8:1],
{4}8b-4[8:1]/2b-4[8:1],,5b-7[8:1]*-1[8:1],,
8b-5[8:1]/2b-7[8:1],,4b,3b/5b,
6b^1[8:1]/2b,,2b^5[8:1]/8b,,
6bx-3[8:1],6x/3x^6[8:1],3bx/6bx,{16}7,8,7,8,
{4}1bx-4b[8:1]/6bx-2b[8:1],,7bp3b[8:1]/5bv3b[8:1],,
2bp5b[8:1]/8bq5b[8:1],,{8}5x,6x,7x,8x,
{16}1,8,1,8,5,6,5,6,3,4,3,4,3,,{8}62,
,73,5^8b[8:1]/1^4b[8:1],73,5b/1b,,Cf,,
3bx/6bx,,18,,{16}1h[8:1]/8h[8:1],,,1h[8:1]/8h[8:1],,,18,,
{8}2v3[8:1],3-5[8:1],2,1-5-7b[16:3],8,,4-8[8:1],3,
42,,5-1[8:1],6,57,,
{4}5xpp6[16:3],5xqq5b[4:1],5xV71[16:3]*<2[32:7],,C,
{8}2q6[8:1]/8,2,6,7,8p4[8:1],8,4,3,
2-4[8:1],6-8[8:1],2-6[8:1],6-2[8:1],2,8x,8x,
{16}3,4,{8}2-8[8:1],2,7-3[8:1],7,4-6[8:1],4,,
7xqq8[4:1],,8x,1xq5[8:1]*^4b[8:1],2x,1b,,Cf,,
{16}8/2^5[8:1],,,1,2,,7,,2/8^5[8:1],,,1,8,,3,,
{8}4-2[8:1],7-4[8:1],4V61[16:4],7,1-5[8:1],,4pp6[24:4],3,
4x/2x,,5p1[8:1],6,57,,{4}1x^4[8:1]/5x^8[8:1],
1xv6[8:1]/5xv2[8:1],1x^4b[8:1]/5x^8b[8:1],1x/5x,C,
{16}8p4[8:1]/2,,,3,3,,2,,2q6[8:1],,5,5,2,,7,,
{8}7-1[8:1],1-5[8:1],2-4[8:1],4-8[8:1],2,6x,6x,,
{4}7-5[8:1],1-6[8:1]/7,4-1[8:1]/1,7-3[8:1]/4,
1^4[8:1]/7^4[8:1],1-5[8:1]/7,7p3^2b[8:1]*v2^3b[8:1]/1,7,
1h[16:3]/8h[16:3],18,{16}24,,,45,,,5/7,,
{4}8b-4[8:3]`1b-5[8:3],,,{48}E5,Cf,E1,{16},,,
6xbh[8:1]/4bx,,,5,6,,78,,2h[8:1]/5,,,4,2,,21,,
7h[8:1]/4,,,5,7,,1-6[8:1]/8,,2-5[8:1],,1x,,2x,,,,
3-1[8:1]/6,,4,5,3,,6,,7-5[8:1]/2,,8,1,7,,,,
1x,2x,3x,4x,1x/5x,8x,7x,6x,{8}5x-1[8:1]/3x-5[8:1],2,35,,
{16}3bh[8:1]/7b,,,4,3,,12,,7h[8:1]/4,,,5,7,,78,,
2h[8:1]/5,,,4,2,,8-3[8:1]/1,,7-4[8:1],,8x,,7x,,,,
6^3[8:1]/2,,7,8,6,,1,,2h[8:1],,4,3,5,,{8}1b/7b,,
5b/6b,3b/4b,1b/2b,7b/8bs4b[8:1]*-4[8:1],,Cf,
E
