&title=Undying Macula
&artist=Ashrount
&first=0.037
&des=Kurage
&lv_5=14+
&inote_5=(63)
{1},
{12}4pp4[12:2]/5h[12:1],,,3h[12:1],,{24}1,2,
{12}4>6[12:2]/1h[12:1],{24},5,,,{12}7h[12:1],,,
{12}5qq5[12:2]/4h[12:1],,,6h[12:1],,{24}8,7,
{12}5<3b[12:2]/8h[12:1],{24},4,,,{12}Ch[12:2],,,
{24}1bpp8V62[4:1]/8b,,7,7,,,{12}E6/B5/B6,,{24}4,4,
{24}5pp4[12:2],,3,3,,,{12}E2/B1/B2,E3,E4,
{4}3-5s1[12:2]/6-4z8b[12:2],,
{24}2-6[24:1],,8-4[24:1],8,1w5[24:1],,A2f/B2/E3,,A8f/B8/E8,,Cf,,
{4}7bh[12:3]/3h[12:2],{24}6,5,4,{48}7,6,5,3,4,5,
{4}6p4b[12:2]`2xp8[12:2],,
{24}Cf/B2/B6,,8,1h[24:1],8-3[24:1]*-5[24:1],7h[24:1],
{48}5,6,4,5,3,4,2,,{24}8b,,
{24}2x/6V84-7b[12:2],3xV52[8:1],{24}4xh[8:1],,,,
{4},
{24}Cf/B3/B7,,1,8h[24:1],1-6[24:1]*-4[24:1],2h[24:1],
{48}4,3,5,4,6,5,7,,{24}1b,,
{24}7x/3V15-2b[12:2],6xV47[8:1],{24}5xh[8:1],,,,
{4},
{48}
3b/6b,,2,4,3h[24:1],,6,5,7h[24:1],,3,5,
{48}1xh[24:1],,{72}E7,B6,B5,{48}2xh[24:1],,{72}B8,C,B4,{48}3x,,3x,,
3b/6b,,7,5,6h[24:1],,3,4,2h[24:1],,6,4,
{48}8xh[24:1],,{72}E3,B3,B4,{48}7xh[24:1],,{72}B1,C,B5,{48}6x,,6x,,
3b/6b,,2,1,2,,54,,7,8,7,,
1-5[24:1]/8,,36,,2,7,4,5,{72}2,3,4,8,7,6,
{4}5bv4V63[48:9]/1bv8V27[48:9],,
{72}1/5h[12:2],2,3,4,,6,7,8,1,2,3,4,,6,7,8,1,2,
{48}3b-5v6[12:1]/6b,,5,4,6,4,7,4,8,,2,,
{48}3x>5b[8:1],,,,B7/E8,,B3/B4,,6h[24:7],,5,,
{24}3b,,,,,2xh[24:1],
{24}4-2[24:1]*-1[24:1],2,6V47[12:1],4,8,8,
{12}4b,,{48}E1,C,E5,,
{24}3xh[12:1]/6xh[12:1],,,2,18,7,
{48}4bV28>1V75[24:5],6,5,6,3b,6,5,6,2b,6,5,6,
{4}4xh[24:5],
{48}6b-4v3[12:1]/3b,,4,5,3,5,2,5,1,,7,,
{48}6x<4b[8:1],,,,B2/E2,,B6/B5,,3h[24:7],,4,,
{24}6b,,,,,7xh[24:1],
{48}5-2-4-1[8:1]*-8-6-1[8:1],,,{96}8,7,6,,,2,3,4,,,{48}1,,C,,
{24}5b,,,,{48}E1,C,E5,,
{24}3x/6x,{48}2,4,3,,7,5,6,,{24}27,
{48}1b-5b[24:1],8,2,7,1b,8,3,6,1b,8,4,5,
{12}Cf,B3/A3/B7/A7,{96}2b/6b,5x/1x,,,{48},,
{24}34,2h[24:1]/3,{96}1b,8x,7x,6xh[96:9],{24},,5,
{24}34,2h[24:1]/3,{96}1b,8x,7x,6xh[96:9],{24},,5,
{24}3/4v3-5b[48:5],2h[24:1]/3,{96}1b,8x,7x,6xh[96:9],{24},5,5,
{12}8bh[8:1],,{96}7b/3b,4x/8x,,,{48},,
{24}65,7h[24:1]/6,{96}8b,1x,2x,3xh[96:9],{24},,4,
{24}65,7h[24:1]/6,{96}8b,1x,2x,3xh[96:9],{24},,4,
{24}6/5v6-4b[48:5],7h[24:1]/6,{96}8b,1x,2x,3xh[96:9],{24},{96}8b,7x,6x,5x,{24},
{12}1bh[8:1],,{96}2b/6b,5x/1x,,,{48},,
{48}3,3,{24}4,{96}1b/2h[12:1],8x,7x,6xh[96:9],{24},,4,
{48}6,6,{24}5,{96}8b/7h[12:1],1x,2x,3xh[96:9],{24},,5,
{48}3v5>4v6[4:1],3,{24}4,{96}1b/2h[24:1],8x,7x,6xh[96:9],{24},4,2,
{4}7bpp2[4:1],,
{4}Ch[4:1],{12},{36}E6,B5,B4,{12}E4,
{48}2-4[24:1]/4,,1,5,1,,3/7-3[24:1],,6,5,6,,2,,8,8,1h[24:1],,7,,2h[24:1],,4,,
{48}3-8[24:1]/6-1[24:1],,7,5,7,,45,,2,4,2,,36,,,,5h[24:1]/7,,6,,2/4h[24:1],,3,,
{48}6-4[24:1]/4,,7,8,7,,5/1-5[24:1],,3,7,3,,6,,2,2,8h[24:1],,1,,6h[24:1],,4,,
{48}5bh[24:1]/8bh[24:1],,,3bh[24:1]/6bh[24:1],,,1bh[24:1]/4bh[24:1],,,,E3,,
{72}7-3b[24:1],6,5,1,2,3,{48}48,,6,5,6,4,6,2,
{12},{48}1b/5b,,2,4,3-5[24:1],,7-3[24:1],,
{48}1,8,1,8,2h[24:1],,6h[24:1],,3,,7,,
{48}1h[24:1],,8,2,6h[24:1],,5,7,2-6[24:1],,8-4[24:1],,3h[12:1],,5,,7h[12:1],,5,,2,,8,,
{48}1b,,7,5,6,,8b/4b,,2,1,3,,2bz6b[24:5]/6b,,7,3,5b,4,6,5,{96}7b,8,1,2,3,4,5,6,
{4}7b,
{96}18,27,36,4h[96:45]/5h[96:45],{48},,,,,,,,,,{4},,
{12}5qq5[12:2]/4h[12:1],,,6h[12:1],,{24}8,7,
{12}5<3[12:2]/8h[12:1],{24},4,,,{12}2h[12:1],,{96}D4,E4,E5,E6,D6,,,,
{12}7pp2[48:11],5,{24}4,4,3h[12:1],,,,4,4>6[24:5],
{12}5<3b[12:2],E5,B6/B3,
{4},
{24}8bqq1V37b[4:1]/1b,,2,2,,,{12}E4/B4/B3,,{24}5,5,
{24}4qq5b[12:2],,6,6,,,{12}E8/B8/B7,E7,E6,
{4}6-4z8[12:2]/3-5s1b[12:2],,
{24}7-3b[24:1],,1-5b[24:1],1,8w4b[24:1],,A7f/B7/E7,,A1f/B1/E2,,Cf,,
{4}7bh[12:3]/3q6[12:2],,
{8}5,5,5,5,{12}4/6<4[4:1],5,5,5,5,5,{16}5-1b[8:1],5,5,5,4,4,4,4,
{24}35,4,4,4,4,4,{32}35,4,4,4,4,4,4,4,{36}35,4,4,4,4,4,4,4,4,{48}3/5q4q5b[4:2]*<4>3-1<8-6>5[4:2],4,4,4,4,4,4,4,4,4,4,4,
{4},,,{8}4b/5b,1b/8b,
{72}2b/7bh[8:1],3,4,5,6,,8,1,2,3h[72:4],6,5,4,,2,1,8,7,
{36}36,4,5,61,7,8,14,,,
{72}3h[8:1]/6-1[24:1],5,4,,2,1,8-4[24:1],7,6,5h[24:1],,,2-5[24:1],,,,,,
{12}6,8,2,
{72}6b/3bh[8:1],7,8,1,2,,4,5,6,7h[72:4],2,1,8,,6,5,4,3,
{36}72,8,1,25,3,4,58,,,
{72}7h[8:1]/2-5[24:1],1,8,,6,5,4-8[24:1],3,2,1h[24:1],,,6-1[24:1],,,,,,
{12}2,4,6,
{72}2h[8:1]/7-4[24:1],6,5,4,3,,1-5[24:1],8,7,6h[24:1],,,3-6[24:1],,,,,,
{12}7,1,3,
{72}7h[8:1]/2-5[24:1],3,4,5,6,,8-4[24:1],1,2,3h[24:1],,,6-3[24:1],,,,,,
{12}2,8,6,
{72}2h[8:1]/7-3[24:1],8,1,,3,4,5-1[24:1],6,7,8h[24:1],,,3w7[24:1],,,,,,
{12}7,5,3,
{72}1b-5b[24:1],2,3,5b,6,7,1bw5b[24:1],2,3,5b,6,7,{96}1b,2,3,4,5b,6,7,8,
{12}1b,Cf,3b/7b,
{48}1b/5b,,2,4,3h[24:1],,6,4,8-4[24:1],,1,,
{48}2>5[24:1]/6,,7,5,6,,4,4,8,,,,
{48}12,,,,3/7h[24:1],,5,6,2,3,4,5,
{48}7,8,7,,{72}1,2,3,5,6,7,{24}2,13,
{48}8b/4b,,7,5,6h[24:1],,3,5,1-5[24:1],,8,,
{48}7<4[24:1]/3,,2,4,3,,5,5,1,,,,
{48}87,,,,6/2h[24:1],,4,3,7,6,5,4,
{96}2b,1,8,7,6,5,4,3,1b,8,7,6,5,4,3,2,8b,7,6,5,4,3,2,1,
{4}7bp4[4:1],,2q5[4:1],,
{72}7bz3<4-6v7b[4:1],8,1s5>4-2v1[72:16],,,,,,,,,,,,,,,,{4},,,
{12}
5h[4:1],,4,3h[4:1],,7,6h[12:2],,5h[12:3],7h[12:2],,,
4h[4:1],,5,6h[4:1],,2,3h[12:2],,4h[12:3],2h[12:2],,,
5h[12:2],,4,3h[12:2],,7,6h[12:2],,5h[12:3],7h[12:2],,,
4h[12:2],,5,6,,2,3h[12:2],,4,2,,,
