&title=狂水一華
&artist=BEMANI Sound Team "HuΣeR Vs. SYUNN" feat.いちか
&first=0.516
&des=いちか
&lv_5=14
&inote_5=(160)
{1},
{8}
3<6[4:2]/6,,,8,8-5[4:1],,,,3<6[4:2],,,1,1-4[4:1],,,,
3<6[4:2],,,7,7-2[4:1],,,,4qq3[8:3]*pp5[8:3],,,,,,4h,,
5pp4[4:3],,,,4,,2,,3qq8[4:3],,5,,7,,,,6-3[4:1],,3-8[4:1],,8-5[4:1],,5,,
4qq5[4:2]*>5[4:2],,,,,,,,
{16}
7,7,8,,62,,7h[8:1],,8p3[4:1],,,1,,,1,,
2,2,4,,53,,6h[8:1],,8-5[8:1]*-3[8:1],,7,1,,,,,
2,2,1,,37,,2h[8:1],,1q6[4:1],,,8,,,8,,
7h[8:1],,5,6,4,5,3,3,4w8[8:1],2,6,,,,,,
{16}
7,5,6,5,6,5,6,5,7,5,6,4,{24}8,7,6,1,2,3,
{16}
5,4,5,4,6,3,5,4,7,7,8,6,{24}1,2,3,5h[8:1],,,
{16}
2,4,3,4,3,4,3,4,2,4,3,5,{24}1,2pp5[24:14],3,8pp5[4:2],7,6,
{4},,,3b/7b,
{8}6h[8:1],5,4,3,6h[8:1],5,4,3,
{16}7,5,,3,5w1[8:1],,64,,,,,,7b/3b>8[8:1],,,,
{32}8V62[8:3]/3,7,6,5,{8},4h[16:1],4h[16:1],5-1[8:1],5-3[8:1],,,
{16}8h[8:1],,,2h[8:1]/6h[8:1],,,35,,2,4,3,4,1b/5b,,3b/7b,,
{16}
4-2[8:1]/6h[8:1],,,,4b,8,7,6,4-8[8:1]/5-7[8:1],,3,,4b/5b,,,,
5h[8:1]/3>8[8:1],,,,3b,7,6,5,2h[8:1]/4h[8:1],,,7h[8:1]/5h[8:1],,,63,,
4h[8:1]/5-7[8:1],,,,1>4[8:1]/5b,,2,,5-1[8:1]/1,,7-4[8:1],,5b,,7b,,
2,2,1,3,4,3,6,6,5,7,8,7,2-6[8:1],,2,,
{8}
8V64[4:1],,4-7[8:1],3,1-6[8:1]*-4[8:1],,1,,
7<4[8:1]/5h[8:1],,2,3pp4[4:1]*V14[4:1],4,,,,
7-3[8:1]/3h[8:1],,1,1,2/6-8[8:1],7,3-5[8:1]/6,2,
3b/7b-3[8:1],,1b-5[8:1]/7b-5[8:1],,1b/7b,,8-4[8:1],8,
{8}
3V52[4:1],,6,8,7-3[8:1],{16}3,3,{8}7,2,
1-5[8:1]/5h[8:1],,6,8<4[8:1],4>8[8:1],,,,
3-7[8:1]/7h[8:1],,5,{16}6,6,{8}2>5[8:1],1,7p3[8:1]/2,8,
7b/1b-4[8:1]*-6[8:1],,1bw5[8:1],,1b,,7<4[8:1]/3>8[8:1],,
{4}
3pp4[8:7]/7b,,1,,1qq8[8:7],,7,,5qq4[8:7],,3,,1s5[8:5],,6-1[8:1],,
8>3[4:1],3<6[4:1],6<1[4:1],1,
3-5[8:1],7-1[8:1],2-6[8:1],6,
18,{8}5,4,{4}3-5[8:1]/6-4[8:1],3>5[8:3]/6<4[8:3],
,,{32}3,4,5,6,7,8,1,2,{4}3b/7b,
{16}
7/5-1[8:1],,,3,5<8[8:1],,4,,5/7-3[8:1],,,,1,,1,,
2/4-8[8:1],,,6,4>1[8:1],,5,,4/2-6[8:1],,,,8,,8,,
75,,3,4,2,,15,,6-4[8:1],,7,,2-5[8:1]/6,,1,,
8-4[8:1],,7-3[8:1],,8,,7,,2h[4:1],,{24}1,8,7,{16}6b,,4,,
5/7-3[8:1],,,3,7,,1,,6v1[8:1]/4v1[8:1],,5,,64,,,,
7-4[8:1]/3,,1-4[8:1],,7-3[8:1],,1,,7,,,2,1,,3,,
2/6<1[8:1],,5,,6/3-5[8:1],,2,,3/7-3[8:1],,,,8/7pp4[32:19]*qq4[32:19],,,,
{4},,,6b/2b,
{8}
84,3b>4[8:4],2h[8:5]/1b,,,,,,
15,6b<5[8:4],7h[8:5]/8b,,,,,,
84,3bq6[16:7],2h[8:2]/1b,,,,1-5[8:1],,
{4}1>4[8:1]/7<4[8:1],1/7-3[8:1],7/4qq4[4:1]*pp4[4:1],4b,
{8}
,6,7h[8:1]/5,3,{16}4/5>2[8:1],,,6,5,,{24}8,7,6,
{8}
5,3,2h[8:1]/4,6,{16}5/4<7[8:1],,,3,4,,{24}1,2,3,
{16}
4,6,5,6,3,5,4,5,2,4,3,5,2,6,3,5,
{4}
8>7[8:3]*<1[8:3],,,6b/2b,
{8}3h[8:1],4,{16}5,4,6,6,{8}3h[8:1],{16}4,3,5,4,6,6,
{16}2,4,,6,4w8[8:1],,53,,,,,,6b<1[8:1]/2b,,,,
{32}1V37[8:3]/6,2,3,4,{8},5h[16:1],5h[16:1],4-1[8:1],4-7[8:1],,,
{16}8h[8:1],,,2h[8:1]/6h[8:1],,,53,,2,4,3,4,1b/5b,,3b/7b,,
{16}
6-8[8:1]/5h[8:1],,,,6b,2,3,4,6-1[8:1]/5-1[8:1],,7,,5b/6b,,,,
3>8[8:1]/4h[8:1],,,,3b,7,6,5,4h[8:1]/2h[8:1],,,7h[8:1]/5h[8:1],,,63,,
5h[8:1]/4-2[8:1],,,,8<5[8:1]/4b,,7,,4-8[8:1]/8,,2-5[8:1],,4b,,2b,,
7,7,6,6,7,7,6,6h[16:1],7,7h[16:1],6,6h[16:1],8bp2[32:6],,,,
{8}
1-4[8:1]*-6[8:1],,1,,7-4[8:1]/4,{16}6,5,{8}7,1,
2-5[8:1]/5,{16}3,4,{8}2,8,7-3[8:1]/3,6,1<6[8:1]/7,2,
5-8[8:1]*-2[8:1]/1,,5,,3/4>1[8:1],5,46,{24}8,7,6,
{16}5b,3,4,2,6b,4,5,3,7b,5,6,,2-5[8:1]/7-4[8:1],,18,,
{8}
,,3h[8:1]/6h[8:1],,1-4[8:1]/5,{16}2,4,{8}1,6,
8-5[8:1]/4,{16}7,5,{8}8,3,2-6[8:1]/6,1,8>3[8:1]/2,7,
4-1[8:1]*-7[8:1]/8,,4,,26,18,{32}7,6,5,4,3,2,1,8,
{4}3q1[12:2]/7p1[12:2],7q5[12:2]/3p5[12:2],,2b/8b,
{16}
6,4,5,5,6,4,7h[16:1],3h[16:1],5,5,5,,46,,28,,
3,5,4,4,3,5,2h[16:1],6h[16:1],4,4,4,,53,,71,,
2,8,1,1,2,8,3h[16:1],7h[16:1],1,1,1,,82,,64,,
3b,4,2,8,5b,6,3,7,1b,5,4,6,{32}1b-5[8:1],2,3,4,5,6,7,8,
{1}1,
