&title=腐れ外道とチョコレゐト
&artist=ピノキオP
&first=0
&des=tkmr
&lv_6=14
&inote_6=(260)
{1}
,,
{16}
6,,6,,3,,6,,3h[4:1],,,,6,5,6,,
3,,6,,3h[4:1],,,,6,5,6,,4z8[4:3],,5s1[8:5],,
,,,,,,,,,,,,,,,,
1,8,1,8,1,8,1,8,1-5[8:1],,,,7,,,,
{4}
4h[2:1]/6h[2:1],,,4/6,
2h[2:1]/5h[2:1],,,2/5,
3h[2:1]/7h[2:1],,,3/7,
{16}
2/8,,2,,6,,6,,4,,4,,5,3,5,3h[16:9],
{4}
5h[2:1],,,5/3,
7h[2:1]/4h[2:1],,,7/4,
6h[2:1]/2h[2:1],,,6/2,
{8}
7h[384:1]/8h[384:1],,,1h[384:1]/8h[384:1],,,2h[384:1]/1h[384:1],,
3/8-5[8:1],,2,,1,1h[4:1],,3h[4:1],
,5h[4:1],,7h[4:1],,8,1/6,,
2/5,2,7,7,4,4,3/5,,
{16}
6h[4:1]/2,,,3,,,4,,7/3h[4:1],,,6,,,5,,
{8}
6/1-4[8:1],,7,,8,8h[4:1],,6h[4:1],
,4h[4:1],,2h[4:1],,1,8/3,,
7/4,7,2,2,5,5,4q5[4:3]/6,,
5b,,,,,,,,
7,5,6,6,4,7,5,6,
4h[4:1],,7^5[8:1],,5^7[8:1],,,,
2h[4:1],,4,3,5,4,6,5,7-3[8:1],,1-4[8:1]*-6[8:1],,,,,,
5h[4:1],,3,4,2,4,3,5,
4h[4:1],,6,5,7,5,6,4,
5,5,3,3,7,7,1,1,
8b,,2b/6b,,3b/5b,,4b,,
8-4[8:1],,3,3,5,5,4,4,
7-4[8:1],,3,3,5,5,4,4,
6-4[8:1],,3,3,7,7,2,8,
1b,,3b/7b,,4b/6b,,5b,,
3h[8:1],4h[8:1],5h[8:1],6h[8:1],2h[8:1],4h[8:1],5h[8:1],7h[8:1],
3>8[4:1],,8q4[4:1],,7,,6,,
5<8[4:1],,8p4[4:1],,1,,2,,
3h[2:1]/7h[2:1],,,,,,,,
6,4,8,2,6,8,7,7,
3,5,1,7,3,1,2,2,
4<7[8:1],,1,1>4[8:1],,8,8,,
7b/5b,,2b/4b,,1bv4[8:1]/8b,,,,
5,3,7,1,6,4,8,2,
7v5[8:1],,3,,1-4[8:1],,1bs5[2:3]/8,,
6,,6,,7,7,,6,,6,,7,7,,2/8,,
1-5[8:1]/7,,6,6,4,4,5,5,
2-5[8:1],,6,6,4,4,5,5,
3-5[8:1],,6,6,2,2,7,1,
6b/8b,,1b/3b,,4b/5b,,3b/6b,,
7,4,6,5,7-4[8:1],,3,,
2,5,4,7,
1-5[8:1]/8-4[8:1],,,,
3h[8:7]/6h[8:7],,,,,,,,
{16}
4,5,3,6,4,5,3,6,4-8[8:1],,,,6b/4b,,,,
{8}
7-4[8:1]/1,,3,,2-5[8:1]/8,,6,,7<4[8:1]/1,,3,,2>5[8:1]/8,,6-1[8:1],,
2-5[8:1],,7-4[8:1],,3-8[8:1],,6,,
{16}
1h[16:5]/5h[16:5],,,,,,2/6,3/7,4/8,,,,2b/6b,,,,
{8}
1/7h[4:1],,5-1[8:1],,6-8[8:1],,2,,
1/3h[4:1],,8-4[8:1],,2-5[8:1],,6,,
7,8,6,6,3,4,2,2,
1b/5b,,3b/7b,,1b/5b,,2,,
7,5,6,5,7,4,5,4,
7-4[8:1],8-3[8:1],7,8,,,2/5,,
2,4,3,4,2,5,4,5,
2-5[8:1],1-6[8:1],2,1,,,7/4,,
6,5,7,4,6-8[8:1],,5/6,,
3,4,2,5,3-1[8:1],,3/4,,
7/8,,6,4/5,,3,1<6[8:1]/2>5[8:1],,
1/2,,,,,,,,
{4}
7h[2:1]/5h[2:1],,,7-1[8:1]/5-2[8:1],
7b/5b,,
{16}
3,4,3,4,2,,,,
{4}
2h[2:1]/4h[2:1],,,2-8[8:1]/4-7[8:1],
2b/4b,,,,
3h[2:1]/1h[2:1],,,3-5[8:1]/1-6[8:1],
3b/1b,,
{16}
7,8,7,8,6,,,,
{4}
6h[2:1]/8h[2:1],,,6-4[8:1]/8-3[8:1],
6q7[2:1]/8,,,,
{8}
3,1,2,2,8,3,1,2,
8h[4:1],,3-1[8:1],,2-4[8:1],,,,
6h[4:1],,8,7,1,8,2,1,
3>7[4:1],,7v5[4:1],,5,,,,
6,8,7,1,8,2,7,7,
2,4,3,5,4-1[8:1],,4/5bs1[2:3],,
7,,7,,6,7,,7,
,7,,6,7,,8/2,,
1-5[8:1]/7,,6,6,4,4,5,5,
2v5[8:1],,6,6,4,4,5,5,
3v5[8:1],,6,6,4,4,7,3,
2b/1b,,4b/5b,,7b/8b,,3b/6b,,
7,5,6,4,5-1[8:1],,4,,
3,8,1,6,4-8[8:1]/5-1[8:1],,,,
2h[8:11]/7h[8:11],,,,,,,,,,,,
{16}
1h[384:1],8h[384:1],1h[384:1],,8h[384:1],1h[384:1],8h[384:1],,
{8}
2-5[8:1]/1,,6,,7-4[8:1]/8,,3,,2>5[8:1]/1,,6,,7<4[8:1]/8,,3-8[8:1],,
7-4[8:1],,2-5[8:1],,6-1[8:1],,3,,
{16}
8h[16:5]/4h[16:5],,,,,,7/3,6/2,5/1,,,,7b/3b,,,,
{8}
8/2h[4:1],,4-8[8:1],4,3-1[8:1],3,7,,
8/6h[4:1],,1-5[8:1],1,7-4[8:1],7,3,,
2/1,2,8,4,5/6,6,3,7,
4b/8b,,2b/6b,,4b/8b,,7,,
2,8,4,6,3,1,5,7,
2>5[8:1],1v6[8:1],2,1,,,7/4,,
7,1,5,3,6,8,4,2,
7<4[8:1],8v3[8:1],7,8,,,2/5,,
3,4,2,5,3-1[8:1]/4,,6/3,,
6,5,7,4,6-8[8:1]/5,,6/3,,
2b/1b,3,3,5b/4b,6
,6,8b>3[8:1]/7b<4[8:1],,
8/7,,,,,,,,
2/4,2/4,,5/7,,2,1/3,,
7,7,6h[4:1]/8,,
{16}
1h[32:1],5h[32:1],2h[32:1],6h[32:1],3h[32:1],7h[32:1],4h[32:1],8h[32:1],
{8}
5,5-1[8:1],,7/5,,7,8/6h[4:1],,2,2,3h[4:1]/1,,
{16}
8h[32:1],4h[32:1],7h[32:1],3h[32:1],6h[32:1],2h[32:1],5h[32:1],1h[32:1],
{8}
4-8[8:1],,4,2,2,,3/1,,
7,7,6h[4:1]/8,,
{16}
1h[32:1],5h[32:1],2h[32:1],6h[32:1],3h[32:1],7h[32:1],4h[32:1],8h[32:1],
{8}
5,5-1[8:1],,7,7,,8/6,,
2,2h[8:1],4,4h[8:1],5,5h[8:1],7,7,
6/4,,7,5/3,,6,2/4h[4:1],,
1-5[8:1],1,8-6[8:1],8,2,2,4,4,
3/5,,2,4/6,,3,7/5h[4:1],,
8-4[8:1],8,1-3[8:1],1,7,7,5,5,
4h[8:3]/6,6h[8:3],,,4bz8[8:1],,,3,
3,3h[8:7],,,5h[8:3],,,,
5bs1[8:1],,6,,7,,
1s5[15.2941#136:1]/8z4[15.2941#136:1],,1h[1:4]/8h[1:4],,,,,,,,,,,,,,,,,,,,,,,,,,,,,,,,,,
E
