&title=From Noir
&artist=Empty old City
&first=-0.024
&des=F.
&lv_5=13+
&des_5=F.
&inote_5=
(186){4},,,6,
5,4,3-5-2-8-6[2:5],2h[4:11],
,,,,,,,,,,,3,
4,5,6>4v7>1-3[2:5],7h[4:11],
{1},,,{4},,{16}6q8[16:21],
5,4,3p1[16:17],{1},{4},,,{2}7h[1:1],
,Cfh[1:1],
,8z4z8[4:11],
{4},,,,,,,,,,,E3,
{8},E7,,,{2}1v4-2[2:3],
{4},,,,8v5-7[4:3],
,,2,
{1}3s7[1:1],
{2},8h[8:5],
{8},,3h[8:7],4h[4:3],,,,,,,6h[8:7],
5h[4:3],,,,,,,,2>5[16:3],
,7,,8-4[16:3],
,3,,1h[4:3],,,,,,,7h[8:7],
5h[4:3],,,,,,,2h[8:7],
4h[4:3],,,,,,,,7<4[16:3],
,2,,1-5[16:3],
,6,,7h[4:3],,,,,,2,
4,3h[4:3],,,,,,5,
4,6h[1:1],,,,,,,,,2,
2-8[4:1],,8-4[4:1],
,4qq5[16:9],,7h[8:5],,,,,,,{4}B7/E8,
{8}E2/B2,,,6,
{4}6,3>6[2:1],{2}5h[2:1],
{4},E4/B3,{2}E6/B6,
Ch[2:1],8b<6p4[4:11],
,,,2h[2:3],
,,Ch[2:1],
1>3q5[4:11],
,,,7h[2:3],
{4},,,,5,
4,{8}5/3h[4:1],,,5/3h[4:1],
,,{4}5/3h[4:1],,4h[8:1],
{8}4,7h[8:1],,7,6h[4:1]/5h[4:1],,,5h[4:1]/4h[4:1],
,,{4}3h[4:1]/4<6[16:5],,,2,
3,4/6h[8:1],5/6h[8:1],
7/6h[8:1],5/6h[8:1],7/6h[8:1],8/6h[8:1],
1/7h[8:1],2/7h[8:1],8bz4[16:13],E3,
E7,C,,1h[4:1],
3h[4:1],5-1[8:1],{32}5b/7p3[8:1],Cf,,,,,,,{4}7/3,
{8}2,2>5[8:1],1,2<5[4:1],,3,{16}3,2,1,8,
7,6,5,4,{4}3-8[8:1],3/5-1[8:1],5/2q6[8:1],
{8}8-3[8:1],7-4[8:1],8,7,{16},,2,1,8,7,6,5,
{4}4<2q6[2:1],4/3h[2:1],{8},,,,6,
6-1[8:1],4,6,{4}2>5[8:1],2/8,
7V15[4:1],{8}4,4-6-2[4:1],,7,{4}7h[4:1],
{8}1,1-5[8:1],6,1,7,{16}4/8,1,2,3,4,5,
{4}6pp4[8:3],3,2-5b[8:1],2,
8w4[8:1],8,,5/4>1[8:1],
8<5[8:1],2v8[8:1],6,1h[4:1]/7v5[8:1],
,6h[4:1]/2v4[8:1],,3h[4:1]/7v1[8:1],
{16},,,3,,,{8}4,{4}5b>2[8:1],7b,
5<8[8:1],8,2-6[8:1],6,
8-4[8:1],4>6[4:1],{24}E4,E3,E2,E1,E8,E7,{4}E6f,
1<6[8:1],7,8>3[8:1],3,
{16}2,6,2,6,2-8[8:1],6,2,6,{4}2b-5[8:1],2/6,
{8}7,7<4[8:1],8,7>4[4:1],,6,{16}6,7,8,1,
2,3,4,5,{4}6-1[8:1],6/4-8[8:1],4/7p3[8:1],
{8}1-6[8:1],2-5[8:1],1,2,{16},,7,8,1,2,3,4,
{4}5>7p3[2:1],5/6h[2:1],{8},,,,3,
3-8[8:1],5,3,{4}7<4[8:1],7/1,
2V84[4:1],{8}5,5-3-7[4:1],,2,{4}2h[4:1],
{8}8,8-4[8:1],3,8,,3x/4x,4x/5x,6x/5x,
{16}4,5,,6,{8}5,{24}4x/7h[8:3],3,2,{4}1-5b[8:1],A1f,
{16}4/6,,,5/3,{48},,,,,,{24}4x/2h[8:3],5,6,{4}7-3b[8:1],A7f,
{2}1w5[8:1],{4}3-8[8:1],6-1[8:1],
4-8[8:1],5-1[8:1],2-4[8:1],8,
7-5[8:1],1>4[8:1],Cf,8<5[8:1],
3,2>6[4:1],6<2[4:1],2V46[4:1],
6V82[4:1],2,8x<5[8:1],3,
1>4[8:1],7V53[4:1],3V17[4:1],7<3[4:1],
3>7[4:1],7,2xq6[4:1],6q2[4:1],
2>6[4:1],6<1[4:1],1>4[4:1],4<7[4:1],
7>2[4:1],2,8<5[8:1],3,
1>4[8:1],6,{16}7,5,{8}7,{16}4,6,{8}4,
{16}5,3,{8}5,{16}3,2,1,8,{2}5b/7b>5[8:13],
,,C,
1<3[8:13],
,B2,
B7,8>6[8:13],
,E2,
E8,7>8>1>2>3<4<5[8:13],
,C,
{24},,,,,,,,,,,,2,1h[24:47],{4},,,{16},,{24},E8,
B8,,,,,,,,,,,E4,
B4,,,,,,,,,,,7,8h[24:47],{4},,,{16},,{24},E2,
B1,,,,,,,,,,,E6,
B5,,,,,,,,,,,{2}2s6[8:5],
,8-4[2:1],
,8-4b[2:1],
,8qq5[2:1]*pp3[2:1],
{32},,,,,,,,,,,,,,,,1x/6xh[8:3],8x,{16}7x,{32}5x,4x,3x,2x,1x,8x,{16}7x,{32}5x,4x,3x,2x,
{8}7b<4[8:1],1b,7,1bq5[8:1],6b,1,8bp4[8:1],2b,
8,1b,{16}5,5,{8}4h[4:1],{32}E8,E7,E6,E5,E4,E3,E2,E1,E8,E7,E6,E5,{8}E4,
2b>5[8:1],8b,2,8bp4[8:1],3b,8,1bq5[8:1],7b,
1,8b,{16}4,4,5,5,{2}3h[16:3],
{16}7bh[8:1]/8h[8:1],,,6h[8:1]/4bh[8:1],,,{8}1bh[8:1]/2h[8:1],{16},3bh[8:1]/4h[8:1],,,7bh[8:1]/1h[8:1],,,6h[8:1]/5bh[8:1],
,,{8}4bh[8:1]/2h[8:1],{16},1s5[16:9],,,{2}8h[4:3],
{4},,,7,
6,5,{2}4q2-8<4[4:7],
,C,
{8},,,,E3,,,E4,
,,{4}E5,{2}D5,
2h[2:1],{12}A7,A8,A1,A2,A3,A4,
{2}5xh[2:1],7q3[8:11],
,6-3[8:3],
{4},4w8b[1.6129##0.3226],,,,,,,,,,8h[4:1],
6h[4:1],4<7[8:1],A4f/2q6[8:1],2/1,
{8}8v5[8:1],5<7q3[4:1],8,3,{16},,2,1,8,7,6,5,
{4}4-8[8:1],4/6<1[8:1],6/2-7[8:1],2-4[8:1]/8-4[8:1],
8/2-6[8:1],2,{16},,7,8,1,2,3,4,
{4}5>7p1[2:1],5/6h[2:1],{8},,,,1,
1q5[8:1],7,1,{4}6-2[8:1],6/4-8[8:1],
4/7-5-2[4:1],{8}1,3V16[4:1],,5,{4}7h[4:1],
{8}5,5>2[8:1],8,5,7,{16}1/6,8,7,6,5,4,
{4}3qq5[8:3],5,6pp4[8:3],3,
1-5[8:1],1,6<2[4:1],2V46[4:1],
6-2[16:3],2,4qq2[8:1],6,
5pp7[8:1],2,3qq1[8:1],7,
{16}6pp8[8:1],,,3,,,{8}4,{4}5bh[8:1]/7bh[8:1],6bh[8:1]/4bh[8:1],
5h[8:1]/3p7[8:1],5,4q8[8:1],2,
1w5[8:1],1,{16}E5,E6,E7,E8,E1,E2,E3,E4,
A5,A6,A7,A8,A1,A2,A3,A4,{8}5h[16:1],5h[16:1],4h[16:1]/6h[16:1],6h[16:1]/4h[16:1],
{16}7,3,7,3,7-1[8:1],3,7,3,{4}E2f/7b-3[8:1],7/2,
{8}1v4[8:1],4>2p6[4:1],1,6,{16},,7,8,1,2,3,4,
{4}5-1[8:1],5/3>8[8:1],3/7-2[8:1],1-5[8:1]/7-5[8:1],
1/7-3[8:1],7,{16},,2,1,8,7,6,5,
{4}4<2q8[2:1],4/3h[2:1],{8},,,,8,
8p4[8:1],2,8,{4}3-7[8:1],3/5-1[8:1],
5/2-4-7[4:1],{8}8,6V83[4:1],,4,{4}2h[4:1],
{8}4,4<7[8:1],1,4,2,8/2,3/7,8/2,
{32}3/7,4/6,{16}5,{32},,2/6,3/5,{8}4,{24}2x/8x,3/7,4/6,{4}5w1b[8:1],A5f,
{16}2x/8x,,,7x/1x,{48},,,,,,{24}7x/1x,6/2,5/3,{4}4w8b[8:1],A4f,
{2}2p6[16:3],7<4[8:5],
{4}3,2,{2}2>5[8:5],
{6}6,7,8,8-5>4-1[4:11],,,,,,,,,,,,{2}2h[1:1],
,,7h[2:1],
2-4-1-6[8:19],
,,,7h[4:3],
{6},,,6/4,4/6,4/6,
5/3,3/5,5/3,6h[2:1]/2<7[8:3],,,,,,{2}3h[2:1]/7>2[8:3],
,2>7[2:1],
7p2[8:3],7>8>1>2[8:3],
3>5[4:5],3h[1:1],
{4},,,,2/6,
3/5,{2}4-2>4-8q8[4:5]*-6>4-8p8[4:5],
,,A8f,
{24}8,1,2,3q4[4:1],,,,,,,,,5,
6,7,8p8[8:3],,,,,,,{12}2h[12:1],,2h[12:1],,2h[12:1],{24},,2/7x,6,
{8}5h[8:3],{24},,,,,,2,3,4h[6:1],{48},,,,,,{16}8,1,{4}2-5[8:1]/7-4[8:1],
{8}2b/7b,,,C,,E1,E8,E7,
E5,E4,E3,Ch[8:1],
E
