&title=浅滩
&artist=Zeno,海伊
&first=0
&lv_5=14
&des_5=hiyori
&inote_5=
(162){4},,,,4/5h[4:1],
3,2/6h[4:1],3,
4/8-5q4[4:3],8/5,4,2h[4:1],
,1h[4:1]/E6,B7,2h[4:1]/E6,
B7,3h[4:1]/E6,B7,{8}5/4h[2:1],5,
{4}5,6,7/3h[4:1],6,
5/1v4v7[4:3],1/4,7,6h[4:1],
,7h[4:1]/E4,B2,8h[4:1]/E4,
B2,7h[4:1]/E4,B2,6/C,
4/5h[4:1],3,2/6h[4:1],1,
2/8<6-2[2:1],8/1,{2}2<8v5[2:1]*<8v3[2:1],
{4},,6/4,7/3,
5/3,6/2,4/5,{8}5/4h[2:1],5,
{4}5,6,7/3h[4:1],8,
7/1>3-7[2:1],1/8,{2}7>1v4[2:1]*>1v6[2:1],
{8},,,,7/3,2/8,{16}1bw5[8:1],8,1,8,
{24}1bxqq3[2:1],Cf/B1,,,,,,,,,,,,,,,,,{8}6,6,
{24}1b/6-8[8:1],2,3,4,,,{4}6/5-3[8:1],5/7h[4:1],{8}2,6/3,
{16}5-8-6[4:1],4,5,4,{8}5,3,2-5[8:1],1-6[8:1],2,1,
4,3/5,2/6,7/1,{24}8,7/1,6/2,5pp4[4:1]/3qq4[4:1],,,{8}4x,{24}5x/3x,,B8f,
{48},,,,,,,,,,,,{16}2x<7[8:1],5,2,5,{4}2,{8}1x/6x,7/2,
{24}8b/3-1[8:1],7,6,5,,,{4}3/4-6[8:1],4/2h[4:1],{8}7,3/6,
{16}4-1-3[4:1],5,4,5,{8}4,6,7-4[8:1],8-3[8:1],7,8,
{6}5bx,4b/6,3b/7,2b-5[8:1]/8-5[8:1],{12},{4}2b/8,
{16}4,6,4,6,4,6,3,7,3,7,3,7,2bx-6[8:1],8,2,8,
{4}2bx,5v2[8:1]/1v6[8:1],1>4[8:1]/5<8[8:1],D6/D2,
{8}3,3,4/5,6,6,4/5,3/6,7/2,
{24}1x/8,2,3,4,,,1x>6[24:5],2x>7[24:5],3x<8[24:5],4x<1[24:5],,,{2}1x,
{16}5,3,5,3,5,3,6,2,6,2,6,2,7bx-3[8:1],1,7,1h[16:3],
{4}7bx,4v7[8:1]/8v3[8:1],8<5[8:1]/4>1[8:1],D4/D8,
{8}6,6,5/4,3,3,5/4,6/3,2/7,
{24}8x/1,7,6,5,,,8x<3[24:5],7x<2[24:5],6x>1[24:5],5x>8[24:5],,,{2}8x,
{16}2,6,2,6,2,6,2,6,{8}2h[8:3],E4,,E5,
,E6,2-5[8:1],7h[4:1],{4}2,{8}3,4/5,
{4}6p3[8:3],{8}6/3,2h[4:1],,,1,2,
{4}5/3pp4-1-3[2:1],6/3,7,{8}8h[2:1],E5,
E4,E3,E2,E1,{16}1x/8x,7,6,4/5,3,2,{8}1/8h[8:3],
,,3v8[8:1],7h[4:1],{4}3,{8}1x,2/6,
{4}5pp7pp1[8:3],{8}3/5,4h[4:1],,,3-5-7-1[4:3],5,
{2}3,1-3[4:1],
{4}4,5s1[4:1],{8}4/5,3,{4}2,
1b/5,{8}6qq3[8:3],2h[8:3],6,,,1,
{4}8qq2[8:3],{8}3/8,4h[8:3],,,1x,8/2,
{4}7/3<6[8:1],3/7>2[8:1],7/3-7[8:1],3/1-5[8:1],
{8}1/3h[8:3],,,4,5/3,2/6h[8:3],E3,E4,
{4}E5,4/7-4[8:1],7/3-8[8:1],3/5<8[8:1],
5/1>4[8:1],1/6-2[8:1],6/3-7[8:1],3/1-5b[1:1],
,1h[4:3],,,,5/2-5[8:1],
2/6<2[4:1],6/2>6[4:1],
C,1-5[8:1],1/7-3[8:1],4/7V15[4:1],
{8}7,,,4,{4}5/4V28[4:1],4/8V64[4:1],
4,Ch[4:1],{16},,B2/B6,B3/B7,{4}B4/B8,
7-4[8:1],7/3>7[4:1],3/7<3[4:1],C,
8-4[8:1],8/2-6[8:1],5/2,5pp4[4:3],
5/2-4[8:1],2,{8}B3,B2,{4}B1,
6/1s5[4:1],5/1,{8},1V75[4:1],{4}2v4[8:1],
{8}2,,,1<5[4:1],{4}2pp4[8:1],2,
{8}3,5,{4}2-5[8:1]/6-1[8:1],{2}2/6,
{4}5/1v3[4:1],1/3<1[2:1],{2}5h[4:1],
{4}5,6h[4:1]/4qq4pp4[4:3],4,7h[4:1],
,Cf,{24},,,,,,4/5bv2[8:1],6,{6}7,
{4}5bx/8>3[8:1],{24}8,7,{6}6,{24}4-7[8:1],,,5,,,4x,3x,2x,1x-5[8:1],,,,,,{8}5/1,
6-2[8:1],7xh[8:3],{4}6,4bqq4[4:1],
{8}7/4pp4[4:1],7,8,8,1-5[8:1],3>7[8:1],1b,3x,
{16},,5x,4x,5,4,5,4,{4}5,{24}5/4bv7[8:1],3,{6}2,
{4}4bx/1<6[8:1],{24}1,2,{6}3,{24}5-2[8:1],,,4,,,5x,6x,7x,8x-4[8:1],,,,,,{8}4/8,
3-7[8:1],2xh[8:3],{4}3,5bpp5[4:1],
{8}2/5qq5[4:1],2,1,1,8-4[8:1],6<2[8:1],8b,6x,
{16},,{256}1xV35V71b[4:1],8xV64V28[4:1],{16},{64},,,{128},{8}2x/7x,1/8,{16},,,,6,3,6,3,
6<1[8:1],3,,,{4}A6f/1-5[8:1],A1f/5>2[8:1],A5f,
,7/2-4[8:1],2/1-5[8:1],1/8-4[8:1],
8/7-5[8:1],7/2<7[8:1],2/3q6[4:1],{8}3/6,Cf,
,,{4}4/8-4[8:1],8-6[0.3704##0.1852]/3-1[0.3704##0.1852],8/3qq7[4:1],
{8}3/5,6x,5x-2[8:1],6h[4:1],{4}5x,3h[4:1]/7h[4:1],
,8<5[8:1]/4>1[8:1],8q4[8:1]/4q8[8:1],8V64[8:1]/4V28[8:1],
8/4,{8}5/1h[8:3],5,6,6,{4}8>2v3[4:1]*<6v5[4:1],
{2}8,C,
{48}B5,B6,E7,7xh[16:31],{4},,,{16},,{24},{48}B1,
B2,E3,3xh[16:15],{4},,,{16},,{24},{48}D7/D3,
A6/A2,D6/D2,1xh[16:31]/5xh[16:31],{1},{4},,,{16},,{24},{48}E2/E6,
B2/B6,B3/B7,E4/E8,{4},{16},,{24},{2}C,
{48}4x,5x,6x,7xh[16:31],{4},{16},,{24},{2}C,
{48}8x,1x,2x,3xh[16:15],{4},,,{16},,{64},,{96},{32}E7/E3,
B6/B2,B5/B1,E5/E1,{4},,,{16},,{8}4/5,
4,3/5,3,2/5,2,1/5h[4:1],1,
{16},,4,5,{8}4,{16}6pp7[8:3],5,{8}4,6,5,4,
3,{16}6x,5x,{8}4x/3,2x,3/4,5,4/3>8[8:1],2,
3/4,5,6,{24}7/8,1/6,2/5,{8}4/3h[4:1],5,4,2/5,
{16}3>3[8:3],4,3,4,{4}3,{8},7x,2xh[8:1]/8<5[8:1],7,
{4}8/3h[8:1],{16}3h[8:1],,,4,2,5,1,6,8-5[8:1],7,{8}2,
{24}8/1,2,3,4h[8:1],,,{8}6,5/3h[8:1],6,5/2h[8:1],6,5/1h[8:1],
6,6,6/2,2,2/5,5,5/3,3,
3b/4b,,,4/6h[8:1],4,4/5h[8:3],{24}4,3,2,1h[8:1],,,,6,
7,8h[4:1],{48},,,,,,,,,,{16}3,4,{8}2,{16}5,4,{8}6,{16}4,5,
{8}3,{16}6,5,{8}7,8/1s5[8:1],,1/2h[8:1],,,6,
{16}5,4,{8}5,3<6[8:1],2,1,8>3[8:1],7,
6,5,4/3x,3,3/4,4,3/4<7[8:1],3,
{24}3/4,2,1,8h[8:1],{48},,,,,,,,,,{16}7,8,6,1,5,2,4,3,5,2,
6-2[8:1],1,{8}7,{4}6b,{16}3,3x,4,4x,5,5x,6,6x,
7,7x,8,8x,1,1x-5[8:1],2x,2x,3x,3x/1bx,,,,,,,{4}Cf,
{8}1s5[8:1],7h[4:1],{4}1,{8}4,6/5,
4qq7[4:1],5,{4}4/7,{8},,6/1-3-8-4-7[4:3],5,
{4}4/1,5,{8}6h[4:1],,,E1,
5h[4:1]/E2,E3,E4,E5,{16}4x/5x,6,7,8/1,2,3,{8}4/5h[8:3],
,,4V28[8:1],6h[4:1],{4}4,{8}2x,7/1,
{4}8qq6qq4[8:3],{8}8/2,3h[4:1],,,2pp4pp6pp8pp2[1:1],4,
{2}2h[4:1],3h[4:1],
{4}4h[4:1],8qq6qq4[8:3],{8}8/3,3,2,2,
{4}1b,{8}2-5-7-3[8:3],4,2/5h[4:1],,,8h[4:1],
{4}2-7-5-1[8:3],{8}2,8h[8:1],,7h[8:1],,2/6,
{4}7/1-5[8:1],1/7-3[8:1],7/2-6[8:1],2/8-4[8:1],
{8}8/3h[8:3],,,4,5/2,1/6h[8:3],E2,E3,
{4}E4,{8}7/1b-5[8:1],2/8b-4[8:1],1b,8b,,,{2}1b-5b[2:1],
{8}1h[4:1],{4},{256}8xqq8[4:3],1xpp1[256:191],{1},{16},{64},,,{128},{4}Cf,
,,B2,
6h[2:1]/E4,B2,E4,{8}B2,E4,
6h[2:1],B2,{4}E4,,B2,
5h[2:1]/E4,B2,E4,{8}B2,E4,
{4}5h[2:1],,,E8,
3h[2:1]/B6,E8,B6,{8}E8,B6,
3h[2:1],E8,{4}B6,,E8,
4h[2:1]/B6,E8,B6,E8,
4h[2:1]/B6,{8}E8,B6,{4}5x,3x/6x,
2x/7x,B4,E3/8-6[8:1],B4,
7-5[8:1],E3,B4/8-6[8:1],E3,
B4/7-5[8:1],E3,B4/8-6[8:1],{8}E3,B4,
{4}7,B8,E7/1-3[8:1],B8,
{2}E7/2-4[8:1],{4}1-3[8:1],B8,
2-4[8:1],E7,B8/1-3[8:1],E7,
{8}2,{16}5,4,6,3,7,2,8,1,7,2,{4}6h[4:3],
,,,1>4[8:1],
{24}1b/5-1[8:1],6,7,8h[8:1],,,{8}5,7v4[8:1],6/2,7/3>8[8:1],2,3/5,
,2/6b,{24}3b/7,4,5,6,7,8,1/5,2/6,3/7,4/8,,,{8}6/2V48[8:1],6,
5/2-6[8:1],5h[4:1],{4}2,{8}1V75[8:1],2v4[8:1],1bx,2bx,
{24},,,5,6,7,8,5,4,3,2,1h[8:1],,,,2/5,3/6,4/7,{4}8<5[8:1],
{24}8b/4-8[8:1],3,2,1h[8:1],,,{8}4,2v5[8:1],3/7,2/6<1[8:1],7,6/4,
,7/3b,{24}6b/2,5,4,3,2,1,8,7,6,5,,,{4}1b<7-3[4:1],
{24}1/3bx>1v6[4:1]*>1v4[4:1],4x,{12}5x,,,,,,,,{4}5bpp4[4:1]/3bqq4[4:1],
3b/5b,{8}A4f,{16}3,5,2,6,1b,7,{8}8h[4:1],6b,
,,1-5[8:1],6,5/1-3[8:1],6,7/1-6[8:1],6,
{4}5/1,{8}4/8-4[8:1],3,{4}2h[8:1]/8-6[8:1],{8}3/8-3[8:1],4,
{4}5h[8:1]/8-5[8:1],4/8-4[8:1],8/4pp5[4:1]*qq3[4:1],{24}B4f,C,,,,,,,,,,,{4}1>4[8:1],
5-1[8:1]/1<6[8:1],1/5qq5pp5[4:3],
{8}5,2,2,1,{4}1,Ch[8:3],
,4/8<6-2[2:1],8/2,{24}2<8v5[2:1]*<8v3[2:1],3,{6}4,
{12},,,,,,,,,{4}7/8-3-7-4-1-5-8[1:1],
{1}8/6h[2:1],
{4}Cf,{24},,,,,,,,,,,,1x/5-1[8:1],2,3,4x/6x,,,{8}5/7-3[8:1],
8,7/2-6[8:1],1,2/5,4-8[8:1],5xh[4:1],4x,
,1V75v8[4:1],2,1/3h[4:1],,,2/7,6/1-5[8:1],
2,1/7-3[8:1],8,7/2>5[8:1],1x,{16}2/8<5[8:1],D4f,{8}7x,{16}8,D7f,
{2}1bh[4:3],{4}4<6-3<4q1-4[4:3],{8}4bx,3b,
,,,,,,4bv3>1[8:3],6bv7>1[4:1],
{16},,,,,,,,2,1,3,8,4,7,5,6,
{24}4b,3,2,1,8,7,6,5,4/8,3/7,2/6,1/5,4,3,2,1,8,7,{4}2-5[8:1]/6-1[8:1],
{16}2b/6b,Cf,{4},,{16},,{24}8x/4-8[8:1],7,6,5x/3x,,,{8}4/2-6[8:1],
1,2/7-3[8:1],8,7/4,5-1[8:1],4xh[4:1],5x,
,8V24v1[4:1],7,8/6h[4:1],,,7/2,3/8-4[8:1],
7,8/2-6[8:1],1,2/7<4[8:1],8x,{16}7/1>4[8:1],D6f,{8}2x,{16}1,D3f,
{8}8bh[4:3],3x,3x,2,2,1,1-4[8:1],8,
7/1,6-3[8:1],5,6/4h[4:1],,,{4}3bxpp4-1>2[4:7]*pp4-1>2[4:7],
{1}3bx/B3f,
,{24}4/3-8[8:1],
5,{12}6h[6:1],,{4}3,{24}7,6,5,4-8[8:1],,,{8}1-5[8:1],4,
1,7-3[8:1],4-8[8:1],7,4,{16}5x,1x,6,2,7,3,
{8}8bw4[8:1],7/1,{16}8bpp6[2:1],Cf/B8,,,,,,,,,,,{8}4,
3,2/6,{24}2/6,3/7,4/8,{4}5-2[8:1]/1-6[8:1],5/1,
{8}2x/6x-1[8:1],7x/3x,{4}6/2x,{24}2,3,4,5-1[8:1],,,{8}8-4[8:1],5,
8,2-6[8:1],5-1[8:1],2,5,{16}4x,8x,3,7,2,6,
{6}1b,2b/8b,3b/7b,4b-1[8:1]/6b-1[8:1],{12},{4}6b/4b,
{16}2,8,2,8,3,7,3,7,4,6,4,6,5bw1[8:1],5,5,5,
5bxqq7[2:1],Cf/B5,,,,,,,{8}1-5[8:1],2,1,8V26[4:1],
7,6/8,{4}5-2[8:1],{8}5/7,8>4[8:1],8,{24}8,7,6,
{8}5h[4:1],3x-6-1[8:3],3,3,{2}4h[4:1],
{8}2b/8,7/3b,{16}6/4b,3x,7x,2x,{24}8bx,1,2,3,4,5,{8}6-3[8:1],6,
6/8-5[8:1],8,8/2-7[8:1],2,2/4-1[8:1],4,{4}6/4,
{8}3-8[8:1],4,3/5-2[8:1],6,5x/7-4[8:1],8,7/1-4[8:1],1,
1,8<6[8:1],6-2[8:1],8/2<8v5[4:1]*<8v3[4:1],{16},,,,,,,,4,
6,3,7,2,8,1,7,2,6,{8}B3f/Cf/3bv6<2v5[1:2],
E
