&title=Glitched Universe
&artist=削除
&first=0.35
&des=AstronautAlan
&des_5=AstronautAlan
&lv_5=14+
&inote_5=(87.02){4}4>5[4:7],,,,,,,,{1}Ch[8:1],
{4},5<4[8:19],{2},{64}A3,
E4,{32}E5,{16},,,,,,,{64}B6,B5,{32}E5,,,,,,{64}B2,B1,{4}E1,
{8},{64}A7,E8,{32}E1,{16},,,,,,,,,,,,,{4}5V74[4:1],
{8}4V61[16:5],3,{2}2-6[8:1],
{4}4V25[4:1],{8}5V38[16:5],6,{2}7-3[8:1],
{4}1>4[4:1],{8}4<7[16:3],6<8[8:1],{2}8>4[16:3]*q4[16:3],
{16}7h[16:3],{8},{32}6,5,{8}4/7,{16}3,3h[16:3],,4,{8}4,2-6[8:1]/5>7[4:1],1,
{4}2/5,{8}4h[8:1],{32}6,5,{16}7h[16:3],{8},{16}5,{32}3,4,{16}2-6[16:1],6-2[16:1],3,7,
2,{8},{16}8>6[4:1],,7,,6qq3[16:5],{4},B5/E5/B4,
{16}1<6[16:3],{8},{16}6>3[16:3],{8},{16}3pp6[4:1],2,{4}1h[4:1],B4/B5,
{8}1/7-1b[16:1],{32}6,5,{16}6,{8}7<3[8:1]/2-6[16:1],{32}3>7[8:1],4,{16}3,{4}2/7s3b[16:3],4h[8:1],
{8}8/2-8b[16:1],{32}3,4,{16}3,{8}2>6[8:1]/7-3[16:1],{32}6<2[8:1],5,{16}6,{4}7/2z6b[16:3],5h[8:1],
{8}1/7-1b[16:1],{32}6,5,{16}6,{8}7v2[8:1]/2v7[8:1],{32}3,4,{16}3,{4}2/7>5b[16:3],2h[8:1],
{32}6-3[16:1]/2-7[16:1],7,8,1,2,3,4,5,{8}6/2,8x,{32}6/2-6[16:1],3,4,5,6w2b[16:1],7,8,1,{4}6/2<4b[4:1],
D2f/E2/A1,{8}1-5[16:1],{32}3,4,{16}2,{8}1/8-4b[16:1],{16}7,{32}1,2,{16}8/3-1[16:1],3-7[16:1],{8}5,
{16}3b,{8},{16}8h[8:1],7bv5[8:1],6h[8:1],5q1[8:1],4h[16:5],{4}7,E1f,
{8}2pp4[8:1],{16}4>7[16:3],4,2b,6,{8}6h[16:5],{16},,,{32}8,1,{16}2/6,2/6,3/7,3V14[8:1]/7-3b[16:1],
4/8,8/4-8[16:1],,{64}3/7,B7,C,B3,{8},{16}7,6V85[8:1]/2-6b[16:1],5/1,1/5-1[16:1],,{64}6/2,B2,C,B6,{8},{16}2,3V16[8:1]/7-3b[16:1],
4/6,4/6V84[8:1],,3/7,{8},B8f/C/B1/B7,{32}7/5,{16},{32}2/4,{16},1s5[16:1]/8z4[16:1],{4}2h[8:1]/7h[8:1],
E5f,1<8-2<1-3>2-4>3-5>4-6>5-7<6-8<7-1[4:5],{1},{2}1xs5[8:1],
{4}Ch[4:1],8>1-7>8-6<7-5<6-4<5-3<4-2>3-1>2-8[4:5],{1},{2}8xz4[8:1],
{4}Ch[4:1],2<1-3>2-4>3-5>4-6>5-7<6-8<7-1<8-2[4:5],{1},{2}2xz6[8:1],
{4}Ch[4:1],7>8-6<7-5<6-4<5-3<4-2>3-1>2-8>1-7[4:5],{1},{2}7xs3[8:1],
{8}1,1h[8:7],{2},{8}3,4,
{2}5<1[4:1],{4}Cf,{8}2,1,
8,8h[8:7],{2},{8}6,5,
{4}4>8[4:1],8xp1[4:1],,7xh[4:1],
{8}Ch[4:1],E5,,,,E6,E7,E8,
E1,D1f,{2},{4}2xh[4:1],
{8}Ch[4:1],E5,,,,E4,E3,E2,
{4}E1f/D1,{2},{4}7xh[4:1],
{8}2-4[8:1],C,{4},{8}8-2[8:1],B3,C,B7,
{2}6-8[8:1],{8}4-6[8:1],B8,C,B4,
{2}7V53[4:1],1V75[4:1],
E5/3V17[4:1],{4}5V31[4:1],{16}6,6,7,7,
8h[16:3],{8},{32}2,3,{8}4/7,{32}6,5,6,5,{16}6,{8},{32}7,6,{8}5/2,{32}3,4,3,4,
{8}3,{16}2,2,{8}3/8,{16}7,7,6/1,5,4,{32}3,4,{16}2,8,1,{32}6,5,
{8}7,{32}2,4,2,4,{8}2,{32}7,5,7,5,{8}7,{32}3,4,3,4,{8}3,{32}6,5,6,5,
{16}6,6,,4/2,{8}4/2,{16}7/5,7/5,{32}3,4,3,4,{16}2,{32}6,5,6,5,{16}7,{32}1,8,1,8,
{1}1-4-2-5-3-6-4-7-5-8-6-1-7-2-8-3-1[8:13],
,{16}8/2-8b[16:1],
{32}3,4,3,4,{16}3,2>6[8:1]/7-3[16:1],{32}6,5,6<2[8:1],5,{16}6,{4}7/2z6b[16:3],{64}5,6,{32}7h[64:7],{16},,,1/7-1b[16:1],
{32}6,5,6,5,{16}6,7<3[8:1]/2-6[16:1],{32}3,4,3>7[8:1],4,{16}3,{4}2/7s3b[16:3],{64}4,3,{32}2h[32:3],{16},,,8/2-8b[16:1],
{32}3,4,3,4,{16}3,2v7[8:1]/7v2[8:1],{32}6,5,6,5,{16}6,{4}7/2<4b[16:3],{64}7h,6h,{32}5h[32:3],{16},,,
{32}7-3[16:1]/3-8[16:1],6/2,5/1,4/8,7/3-6[16:1],6,5,4,{4}7/3,{32}3/7-3[16:1],6/2,5/1,4/8,7/3w7b[16:1],6,5,4,{4}3/7>5b[4:1],
D8f/E8/A8,{8}8-4[16:1],{32}6,6,{16}5,{8}8/1-5b[16:1],{16}3,{32}8/2,7,{16}1/6-8[16:1],6-3[16:1],4,4,
6b,{8},{48}5/2b,6/3,7/4,{16}8/5,{48}7b/4,6/3,5/2,{32}4/1,,1bh[16:5],,,,2,3,4,5,6,7,{4}8/E1f,
{8}7v5[8:1],{32}5<3[4:1],4,{16}3,7b,{32}2,1,{8}8h[16:5],{16},,,{32}4,5,1/6h[32:5],2,3,4,{16}5,{32}7,8,
{16}1h[4:1],{32}2,3,4,5,6,7,{16}8bh[8:1],{32}6,5,4,3,2,1,{16}8q2[16:3]/7qq2b[16:3],{32}6,5,4,3,2,1,{4}8/E8f,
{16}8h[4:1],{32}7,6,5,4,3,2,{16}1bh[8:1],{32}3,4,5,6,7,8,{16}1p7b[16:3]/2pp7[16:3],{32}3,4,5,6,7,8,{4}1/E2f,
{16}8xV64b[8:1]*p4[8:1],{32}2,3,4-2[16:1],5,6,7,{4}8,{32}7x/E1f,6,5,4,3,2,1,8,2/7h[32:5],3,4,5,{16}6,{32}8,1,
2-6b[16:1]/6-1[16:1],3/7,4/8,5/1,2/6-3[16:1],3,4,5,{4}2/6,{32}6/2-6[16:1],3/7,4/8,5/1,2/6w2b[16:1],3,4,5,{4}6/2<7b[16:1],
{16}D2f/E2/A1,{32}6,5,4,3,2,1,2/8w4b[16:1],7/3,{16}6/4,{32}3/5-8-6[8:1],6/2,{16}7/1,8,{8},{32}3,2,{16}1-3[16:1],1-5[16:1],{32}5,6,{16}7,
1b,{8},{48}4/7b,3/6,2/5,{16}1/4,{48}2b/5,3/6,4/7,{16}5/8,8bh[8:1],{32}5,4-7-5-1[32:5],3,2,1/8,7,6,5,{4}4/D2f/E2/A2,
{16}8/2,8/2,3,4/5,4/5s1[8:1],6,{8}7/1,{4}1>4b[8:1]*<6[8:1],A1f/D2/D1,
{96}3b/7b,2/6,1/5,8v1b[32:3]/4v5[32:3],{12},{16}2/6,{96}3b/7b,2/6,1/5,8/4,{48},,,,,,,,,,,,,{96}6b/2b,7/3,8/4,1v8b[32:3]/5v4[32:3],{12},{16}7/3,{96}6b/2b,7/3,8/4,1/5,{48},,,,,,,,,,,,,{96}3b/7b,
2/6,1/5,4/8q1b[32:5],{12},{16}1/5,{96}6b/2b,7/3,8/4,1/5,{12},{16}E5,{8}Cf,{96}7b/8h[16:1],6,5,4,,,,,,2b/1h[16:1],3,4,{16}5,{96}7b/3,6b/2,5b/1,4b/8,
E
