&title=Rainy, rainy days
&artist=SOUND HOLIC
&first=0
&des=hinanawi
&lv_5=13
&inote_4=
&inote_5=(140)
{1},
{16}6h[4:4]/1>8[4:3],,,,,,,,,,,,,,,,
,,,,,,2,1,2h[8:1],,4,,3h[8:1],,5,,
6pp4[4:2]/4h[4:1],,,,,,,,2h[4:1],,,,,,,,
35,,2,1,2,,7,8,7,,68,,15,,24,,
3-1[8:1]/8-4[8:1],,,,38,,,,5-7[8:1]/8-4[8:1],,,,58,,,,
2/5-1[8:1],,,,56,,7,,2>5[8:1]/8<5[8:1],,,,28,,,,
38,,6,,5,,7,,18,,3,,4,,2,,
7>2[8:1],,,,4,,,,3<6[8:1],,,,8,,,,
2-5[8:1]/7-4[8:1],,,,27,,,,{12}2,1,2,3b/8b<3[4:1],,,
{16}
6h[4:2]/8,,,,,,,,2h[16:3],,,5h[16:3],,,3h[8:1],,
8-4[8:1],,,,18,,,,7h[16:3],,,4h[16:3],,,6h[8:1],,
1>4[8:1],,,5,,,6,,5-1[8:1],,,7,,,6,,
2>5[8:1],,,5,,,6,,7/1-5[8:1],,,,1/4>7[4:1],,,,
2h[4:2]/4,,,,,,,,6h[16:3],,,1h[16:3],,,7h[8:1],,
4v7[8:1],,,,34,,,,2h[16:3],,,5h[16:3],,,3h[8:1],,
7<5[8:1],,,8,7,,2,,3h[4:1]/4h[4:1],,,,,,2,5,
2>1[4:2],,,,,,,,,,,,6h[4:1],,,,
1b-5[8:1],,2,,13,,4,,6h[16:3],,,7h[16:3],,,8h[8:1],,
1-5[8:1],,8,,17,,6,,3h[16:3],,,4h[16:3],,,2h[8:1],,
6<1[8:1],,,5,,,4,,3>8[8:1],,,4,,,5,,
3h[8:1]/6h[8:1],,,2h[8:1]/7h[8:1],,,1b/8b,,1b-4[8:1]/8b-5[8:1],,,,18,,,,
2v5[8:1]/3,,1,,28,,7,,6h[16:3],,,4h[16:3],,,5h[8:1],,
7v4[8:1],,8,,17,,2,,3h[16:3],,,5h[16:3],,,4h[8:1],,
8<5[16:3],,,5p2[16:7],,,4,,3h[8:2],,,,,,4,4,
1pp4[4:2]*qq6[4:2],,,,,,,,,,,,,,,,
47,,6,5,6,,2,4,3,5,4,6,3,7,2,8,
17,,,17,,,1>6[4:1]/7,,,,,,,,,,
37,,,37,,,3p6[4:1]/7>2[4:1],,,,,,,,,,
48,,,48,,,4qq3[4:1]/8qq7[4:1],,,,,,,,,,
15,,,15,,,15,,37,,4,,5,4,5,4,
6-1[8:1],,5,,5,,4,,5-2[8:1],,6,,6,,7,,
8-4[8:1],,,,2-6[8:1],,,,4-8[8:1],,,,3<8[4:1],,2,,
6h[4:2]/3,,,,,,,,1,,,25,,,47,,
18,,2,,34,,5,,6h[8:1]/7h[8:1],,,,1h[8:1]/8h[8:1],,,,
2b/4b,,,5b/7b,,,4-8[8:1],,8>2[12:1]*<6[12:1],,4,,,,,,
5pp1[4:2]/2-4[8:1],,,,25,,,,3,,,,2-6[8:1],,3,,
7-3[8:1]/2,,8,,2>8[4:1]/7,,1,,6h[8:2]/2,,,,,,1,,
2/8qq8[4:1],,,,1pp1[4:1],,,,,,7,,6,,5,,
3qq2[4:1]/4pp5[4:1],,25,,3b/4b,,,,,,34,,5,,6,,
5-8[8:1]/6,,,,4-1[8:1]/5,,,,34,,,,24,,3,,
1-5[8:1]/6,,2,,5>2[8:1]*<8[8:1]/1,,6,,5-1[8:1],,,,2-6[8:1]/5,,3,,
24,,,,8-4[8:1]/1,,7,,68,,,,1-3[8:1],,8-4[8:1],,
1-5[8:1],,8-6[8:1],,,,,,3,,5,,6p3[8:4]/1-4[8:1],,2,,
16,,,,2,,,,1,,,,7-1[8:1]/3,,6,,
2-6[8:1]/7,,3,,5>2[8:1]*<8[8:1],,4,,5,,,,1,,37,,
5<8[8:1]/4,,,,4q1[8:1]/5,,,,34,,3,,45,,6,,
2pp1[4:1]/7qq8[4:1],,18,,2b/7b,,,,,,36,,4,,7,,
2v4[8:1]/5,,,,5V71[6:1]/2,,,,25,,3,,4,,35,,
2-5[8:1],,6-1[8:1],,2,,6,,2b-4[8:1],,,,2-6[8:1]/6-8[8:1],,5,,
26,,,,8-4[8:1]/1,,7,,6/8pp3[16:16],,,6qq3[16:13],,,,,
,,,,,,,,,,,,,,,,
45,,3,4,3,,45,,{12}36,36,36,36,,,
{16}
3,4,2,5,1,6,3,,4,5,4,,3,,8,,
1-5[8:1],,,,,,8,,17,,,26,,,35,,
4h[4:1]/6h[4:1],,,,,,3,4,3h[16:3],,,4h[16:3],,,2h[8:1],,
5,,,,{12}2,4,3,6,5,7,1,8,1,
{16}
8-4[8:1],,,,,,2,2,6h[16:3],,,5h[16:3],,,7h[8:1],,
{12}2,3,4,5,6,7,{16}18,,,27,,,36,,
{16}
4h[4:1]/5h[4:1],,,,,,3,3,3h[16:3],,,4h[16:3],,,5h[8:1],,
6>3[8:1],,,,,,2,,18,,27,,3>6[4:7]/6,,45,,
7h[4:3],,,,,,,,,,,,,,,,
5h[4:3],,,,,,,,,,,,,,,,
4pp8[4:6]/3h[4:3],,,,,,,,,,,,,,,,
2h[4:3],,,,,,,,,,,,,,3,,
2/5>3[8:1],,6,,57,,8,,1-5[8:1]/7,,8,,17,,6,,
4>1[8:1]/7,,3,,8-4[8:1]/4,,7,,2q3[4:1]/8<3[4:1],,,,,,,,
,,,,1/8<5[8:1],,2,,3/8qq5[16:12],,,4qq1[16:9],,,,,
,,,,,,,,,,,,3/4>1[8:1],,5,,
46,,,,5<8[8:1]/6,,4,,3/5pp8[16:16],,,1pp4[16:13],,,,,
,,,,,,,,,,,,,,,,
45,,,,36,,,,27,,1,8,1,,2,,
35,,4,,7,5,,6,4,5,3,,4,,2,,
3,,5,,4,6,,5,{12}36,36,36,3b/6b,,
,,,,,,,,,,,,,,,,
,,,,,,
