&title=OPENING
&artist=Richard Jacques
&first=0.49
&des=20th Century Schizoid Man
&lv_5=13
&inote_5=(143)
{16}7<4[8:1]/3b,,,1,7,,2,,2>5[8:1]/6b,,,8,2,,6,,
6-1[8:1]/2b,,,4,6,,3,,3-8[8:1]/7b,,,5,3,,7,,
5>2[8:1],,6,7,5<8[8:1],,6,1,5-1[8:1],,4,4,5,,2,3,
{8}5/4b,6b/7,8b/1,2b/3,
{16}5,4,5,4,
{12}5b,1b,7b,2b,6b,4b,
{16}5-1[8:1],,,7,7>2[8:1]/5,,6,,3-8[8:1],,4-1[8:1],,,,,,
7<4[8:1],,,1,1/7-2[8:1],,3,,7-4[8:1],,4,,1h[8:1],,,1,
4-8[8:1],,,2,2<7[8:1]/4,,3,,6-1[8:1],,5-8[8:1],,,,,,
2>5[8:1],,,8,8/2-7[8:1],,6,,2-5[8:1]/6h[8:1],,,6,,,8h[16:1],,
5-1[8:1],,,7,7<4[8:1]/5,,6,,3-6[8:1],,2-5[8:1],,,,,,
6<1[8:1],,,4,4/6-3[8:1],,2,,6-1[8:1],,4,,2h[8:1],,,2,
4-8[8:1],,,2,2>5[8:1]/4,,3,,6-3[8:1],,7-4[8:1],,,,,,
2>5[8:1],,,8,8/2-7[8:1],,6,,2-5[8:1]/6h[8:1],,,6,,,8h[16:1],,
7-2[8:1],,,2,7,,3,,3-6[8:1],,,6,3,,7,,
{8}8-5[8:1],8,1-4[8:1]/8,1,1/8-5[8:1],8,8/1,1,
{16}5/4b,,,8/3b,,,1/6b,,
{12}7,3,5,1>4[12:42],8<5[12:41],4,
{1},,,,
{4}7b/8>3[4:1],3<6[4:1],7h[8:2],,
2/1<6[4:1],6>3[4:1],2h[8:2],,
6/5>2[4:1],2<7[4:1],6h[8:2],,
3/4<7[4:1],7>2[4:1],3h[8:2],,
{16}4/5,,8,1,7,,7,4,6,3,5,3,7,,5,4,3/2,,
6,5,7,,1,8,5,6,3,6,2,,
7,8,1/6,,2,5,4,,7,3,5,4,5,7,5,,
2,1,8/3,,7,4,5,,2,6,4,5,4-1[8:1],2,4,,4,,
7,,4,5,6/3,,2,8,5,6,3,7,3,,
8,7,6/5,,3,4,2,,7,4,5,2,8,1,4,,
1,3,2,,8,6,7,,5,4,5,2,7,4,5,,
3,4,3,,6,5,6,,6,7,8,1,8,1,2-5[8:13]/7-4[8:13],,
{4},,,,,,,
{8},2b/7b,,
7-3[8:1],5,7,1-4[8:1],1-6[8:1],,,,
2-6[8:1],4,2,8-5[8:1],8-3[8:1],,,,
6-2[8:1],8,6,4-1[8:1],4-7[8:1],,,,
3-7[8:1],1,3,5-8[8:1],5-2[8:1],,,,
8-5[8:1],4,8,4<7[8:1],4>1[8:1],,,,
1-4[8:1],5,1,5>2[8:1],5<8[8:1],,,,
{4}8<5[4:2],,,,1>4[4:2],,,,5-8[4:2],,,,4-1[4:2],,,,
{8}7<4[8:1]/1,6,7/1-4[8:1],2,1/7-3[8:1],8,7/3,,
{8}2>5[8:1]/8,3,2/8-5[8:1],7,8/2-6[8:1],1,2/6,,
8-4[8:1],,8>3[8:1]/4<7[8:1],,4/8,,2/6,,
5h[8:1]/6,7,8h[8:1]/1,2,3h[8:1]/4,5,6/7,,
{16}8,3,6,1,7,4,5,2,
{12}8b,4b,2b,5b,7b,1b,3b,,,,,
