&title=DIVINE SERVICE
&artist=Electronic Boutique
&first=0
&des=DIVINE SERVICE
&lv_5=13+
&inote_5=(75.5)
{2}
,
{8}
8-4[4:1],,,,,
{16}
3h[4:1],,5,6,7h[4:1],,B6,B8,1xh[2:1],,2,,3,,B4,B6,7xh[2:1],,2,,3,E4,C,E1,2h[4:1],,8,,1-5[8:1],,8,,
7h[4:1],,,,4h[4:1],,B7,B1,8h[4:1],,5,,3h[4:1],D1,D2,D3,4h[4:1],,2,,1h[16:3],E4,E5,E6,2/E7,,3/E8,,4q5[4:1]/E1,4/D1,,,
Cf,,,,7h[4:1],,8b,2b,3h[4:1],,6,,5,B5/B6,B2/E3,B8/E1,4h[4:1],,7,,8,B8/E8,B4/E4,B6/E6,7/B2/E2,,8/A3/E3,,1h[16:3]/A4/E4,B3,,2h[16:5],
,,1,8,7h[4:1],,B1/E1,B7/E8,5h[4:1],,8,,6h[4:1],A7,B8,E2,3h[4:1],,6,,5h[16:3],D3,B2,C,6/B7,,7/E1,,2q5[16:9]/A8,2p5[2:1]/D1,,,
2b/Cf,,,,,,,,,,,
{32}
4,5,
{16}
4pp8[16:5],3,25,1h[16:1],
4^1[16:1],,,,,,7,6,1/5q2[8:1],,2V41[16:3]/4,,3,,4,,5h[4:1],,8,7pp4[4:1],6h[8:1],,,3pp8[16:5]/7,,,,,5x,,6x,,7h[4:1],,1-5[8:1],2,3V17[8:1],,1,,3,4,5,6,7h[16:3],8,1,2,
1V38[4:1]/8-4[8:1],,3/4-7[8:1],,1/8<1[4:1],,,,,,7,6,5qq4[16:3]*<2[16:5],,37,,5,,,,,5-8[8:1],,4/8-5[8:1],,,,,1pp3[8:1],,3>5[4:1]/5,,1/2h[4:1],,,,,3,2,1,2v5[8:1]/4,,3/5p1[8:1],,1^4[8:1],8,,,6b-2[8:1]*v8[8:1],,8-4[8:1],,6,,,,3q5[32:7],,,,3/7>7[4:3]*<7[4:3],,,,
(151)
{4}
7b,,,,,,,
{16}
68,,15,,2/4h[2:1],,,,,,3,,3h[2:1],,,5,,,6,,7h[2:1],,,,,,E4,E5,E6,,,8,,,17,,
2/6<3[4:3]>6[4:3],,,,,,,,,,,,3>6[4:3]<3[4:3],,4,,,,,,,,,,,,,,3,,4,,4hh[1:1],,,,,,,,,,5,,6,,7,,8-4[32:21],,,,,,,,8x-4[8:1]b,,,,8x,,,,
25,,3,,47,,6,5,,6,5,,47,,8,,47,,6,,25,,3,4,,3,4,,25,,1,,68,,7,,18,,2,1,,1,8,,78,,6,,35,,2,,18,,7,8,,8,1,,12,,3,,
5,4,6h[8:1],,8h[8:1],,7,1h[8:1],,8,2h[8:1],,7,,36,,4,5,3h[8:1],,1h[8:1],,2,8h[8:1],,1,7h[8:1],,2,,36,,4,5,4,7,5,6,3,4,2,3,1,4,8,5,1,6,2>7[4:1]/7,,,,,,,,8z4[8:1]*-4[8:1]b,,,,8,,,,
6,5,7,1,4h[8:1],,2-5[8:1],3x,,1,2,,8,,7,,6,3,4,2,8h[8:1],,6-1[8:1],7x,,5,6,,4,,3,,2v5[8:1],1,3,8,2,,6-3[8:1],4x,,3,6,,2,,1,,7v4[8:1],8,6,1,7,,3-6[8:1],5x,,6,3,,7,,8,,
7,5,6,4,5h[8:1],,4-8[8:1],3x,2x^5[8:1],,4,,2,,7,,2,4,3,5,4h[8:1],,5-1[8:1],6x,7x^4[8:1],,5,,7,,2,,3,4,3,5,4,6,5,6,4,5,3,6,2,7,1,8,
{32}
2,3,4,5,6,7,8,1,2,3,4,5,6,7,8,1,
{16}
2-6[8:1]/6,,4xb/8b,,2b/6xb`Cf,,,,
7,4,5,2,6^3[8:1],,7,8,6^1[8:1],,2,,6-2[8:1],,3,,6,,4h[8:1],,
{32}
1x,8x,7x,6xh[32:5],,,,,1x,2x,3x,4xh[32:5],,,,,8x,7x,6x,5xh[32:1],
{16}
,,
3h[8:1]/4,,8,,5/6h[8:1],,1,,2,4,3,5,4^1[8:1],6,5,7,4^7[8:1],,5,,2/4-8[8:1],,3,,4w8[8:1]/8,7,6,5,4,,,,
2,6,1,8,3^8[8:1],,4,5,3^6[8:1],,7^2[8:1],,3-7[8:1],,7-3[8:1],,3,,6,,
{64}
D7,A6,D6,A5,D5,A4,,,,,,,,,,,D1,A1,D2,A2,D3,A3,,,,,,,,,,,A8,B8,C,B4,
{16}
A4,,,
3h[8:1]/5,,8,,4/6h[8:1],,1,,3,7,2,6,1,5,8,4,7>3[8:1],,,,
{32}
E5,E6,E7,E8,E1,E2,E3,E4,5x,6x,7x,8x,1x,2x,3x,4x,
{16}
1xb/5b,,,,
4v7[8:1],6,3,3,4,,2,2,8,7,6,5,1,8,7,6,1-6[8:1]/5-2[8:1],,,,1^4[8:1]/5^8[8:1],,,,1v4[8:1]*v6[8:1]/5,,,,1,,,,
7,5,6,5,8-4[8:1],,8,,3h[16:3],,,2h[16:3],,,1h[8:1],,7,8,6,1,4,3,5,2,6,6,5,5,4,4,3,3,1-5[8:1],,,,1-3[12:1]/8b,,,,1-7[12:1]/7b,,,6b,1,,5,5,8,6,1,7,2,8,3,1,4,2,4,2,5,7,1,5,3,,
{24}
6,5,6,5,,,3,4,3,
{16}
4-1[8:1],,,5,4,,6,,7^4[8:1]/8^3[8:1],,,,78,,,,2-5[8:1]/6v1[8:1],,,,26,,,,
{16}
3bh[8:3]/7b,,,,4h[8:3],,,,5h[8:3],,,,6h[4:1],,,,8,,71,,82,,31,,4,5,3,6z2[8:1],
{32}
4,5,3,6,,,,,
{1}
,E
