&title=拔罐蓝猫
&artist=?
&first=-0.09999999
&lv_7=噗
&des_7=软糖酱
&inote_7=
(183){8},{24}A5/E7h[12:1]/B6h[12:1]/B7h[12:1],D5,A4,{16},{64},,,A5/E7h[12:1]/B6h[12:1]/B7h[12:1],{192},,,,,D5,,,,,,,,A4,{16},,{64},,{192},{64}A5/E7h[12:1]/B6h[12:1]/B7h[12:1],{192},,,,,D5,,,,,,,,A4,{4},{64},{192},{32}E8f,
A8/B8/E1/D1,A1/B1/E2/D2,A2/B2/E3/D3,A3/B3/E4/D4,{64},,,,,,,,,E7f,,A7/B7/E8/D8,,A8/B8/E1/D1,,A1/B1/E2/D2,,A2/B2/E3/D3,,,,,,,,,,,,,,E8f,,A8/B8/E1/D1,,A1/B1/E2/D2,,A2/B2/E3/D3,,A3/B3/E4/D4,,,,,,,,,(200){32},,,B1,
{64}E2,,,,,,,B8,,E8,,,,,,,{32}B1,E2,{64},,,,,B8,,E8,,,,,,B1,,E2,,,,,,,{32}B8,{16}E8,{32},,E2f,A1/B1/E1/D1,A8/B8/E8/D8,A7/B7/E7/D7,,,,,,B1,
E2,,,B8,E8,,,B1,{64}E2,,,,,,,B8,,E8,,,,,,B1,,E2,,,,,,B8,,E8,,,,,,E8f,,A8/B8/E1/D1,,A1/B1/E2/D2,,A2/B2/E3/D3,{16},,{64},,,{192},{48}B1,
{96},E2,,,,,,,,,{48}B8,{96},E8,{16},{64},,,E2f,,A1/B1/E1/D1,,A8/B8/E8/D8,,A7/B7/E7/D7,{16},,{64},,{128},B1,,,,E2,,,,,,,,,,B8,,,,E8,,,,,,,,,,,,,{32}E8f,A8/B8/E1/D1,
A1/B1/E2/D2,A2/B2/E3/D3,{64},,,,,,,,,B1,,E2,,,,,,B8,,E8,,,,,,B1,,E2,{128},,,,,,,,,B8,,,,E8,,,,,,,,,,,{32}E3f,A2/B2/E2/D2,{16}A1/B1/E1/D1,{32}E6f,A6/B6/E7/D7,{64}A7/B7/E8/D8,,,,,,,E8f,
,A8/B8/E1/D1,,A1/B1/E2/D2,,,,,,,,,,,{32}B1,{64}E2,,,,,,,E7h[16:1]/B6h[16:1]/B7h[16:1],,,,,,,,,,,,B1,,E2,,,,,,,{16}E7h[16:1]/B6h[16:1]/B7h[16:1],{32},,,B1,{8}E2,
{32}B1,E2,,,,E7h[16:1]/B6h[16:1]/B7h[16:1],,,,,,,B1,E2,,,E7h[16:1]/B6h[16:1]/B7h[16:1],,,,,B1,{16}E2,,E7h[16:1]/B6h[16:1]/B7h[16:1],{32},,,B1,
{8}E2,{32}B1,E2,{16},,,{64},,{96},{12}E7f/B6h[48:17]/B7h[48:17]/A6h[48:17]/A7h[48:17],
E
