&title=好きな惣菜発表ドラゴン
&artist=ンバヂ
&first=0.02
&des=QIEG(Happy十年牢粉)
&lv_7=狗?!
&inote_6=
&inote_7=(160)
{4},,,,
{8}E2,,E3,,E4,,B2f,,1>5[4:1],,,,1,,1,,1>5[4:1],,,,1,,1pp4[3:2],,,,,,
{4},,
{8}1>5[4:1],,,,1,,1,,1>5[4:1],,,,1,,1,,1>5[4:1],,,,1,,1pp5[3:2],,
{4},,,,
{8}8,,1,8,
{16}7pp1[8:1]/2qq8[8:1],6/3,5/4,,,,,,6h[8:1]/3h[8:1],,,,
{8}5/4,4>1[8:5]/5,5,5,5,5,5,5,5,
{16}5,3,5,4,4,3,5,4,4,4,3,4b,2,4,1b,4,8,4b,
{16}7,4,6b,4,5/Cf,,,,{32}1b/8b,2b/7b,6b/3b,5b/4b,,,,,1b/8b,2b/7b,3b/6b,5b/4b,E5f,,,,
{16}4,5,4,5,
{16}4h[16:1],5h[16:1],4h[16:1],5h[16:1],4b,3,2,1,4,3,2,1,5,6,7,8,
{16}5,6,7,8,2,3,4,5,2,3,4,5,
{16}8,8,7,7,6,6,5,5,4,4/7,8,1/3,2,3,4,2/5,6,2,
{16}6,2,6,2,6,2,6,
{24}3b,7b,3b,7b,3b,7b,4b,8b,4b,8b,
{48},
{16}7-2[8:1]b/5v2[8:1]b,,,,Cf/B8/B1/E1/D1,
{16},,,,1b,4,1,4,1,4,1,4,E3,4,1,4,1,4,1,
{16}8,5,8,5,8,5,8,5,E7,5,8,5,8,5,8,5,
{16}7/8,,7/6,,6/5,,7/6,,5b/2b,,3,4,6b/1b,,7,8,
{16}1x,2,3,4,1x/E6,2,3,4,3/1,2/8,
{16}7/1,6/8,7/5,,,,
(80)
{16}4bx/1b>3[16:1]b,5bx/8b<6[16:1]b,4bx/1b-4[16:1]b,5bx/8b-5[16:1]b,1b,8b,1b,8b,
{48},,,,,,
{48}1w5[24:1],1,1,1,1,1,1,1,,,,,1b/E1/E8/B8/B1/E2/B7/B2/E7/Cf/E3/B6/B3/E6/B5/B4/E4/E5,
{48},,,,,
(160)
{16}5,,5,4,3,,,,4h[8:1]/2h[8:1],,,,4h[8:1]/2h[8:1],,,,
{16}5,,5,4,3,,,,4h[8:1]/2h[8:1],,,,4h[8:1]/2h[8:1],,,,
{16}5,,5,4,3,,,,4h[8:1]/2h[8:1],,,,4h[8:1]/2h[8:1],,,,
{16}5,,5,4,3,,,,3h[8:1]/4h[8:1],,,,3h[8:1]/4h[8:1],,,,
{16}5,,5,4,3,,,,4h[8:1]/2h[8:1],,,,4h[8:1]/2h[8:1],,,,
{16}5,,5,4,3,,,,4h[8:1]/2h[8:1],,,,4h[8:1]/2h[8:1],,,,
{16}5,,5,4,3,,,,4h[8:1]/2h[8:1],,,,4h[8:1]/2h[8:1],,,,
{16}5/4,,{32}6/3,5,4,3,,,,,,,,,4h[8:1],,,,
{16}2,,2h[8:1],,1b,,1b,,2,2,3,3,1/4,,
{8}7-3[8:1],7,,,8<5[16:3],2,4<7[16:3],2,
{8}1,2>5[4:1],2,5<8[4:1],8,1,2,
{8}3<7[8:2],,3,7,8,{24}1,,1,2,,2,3,,3,4,,,
{32}4b>1[16:1],,,,,,,,8,7,6,5,8,7,6,5,4b>1[8:1],,,,,,,,8,7,6,5,8,7,6,5,4b,,,,
{16}3x/5x-1[8:1],,3,4,5,,4-8[8:1],,2,3,4,,,,6h[8:3]/2h[8:1],,,,2,,2h[8:1],,5h[8:1],,1h[16:1],4h[16:1],1h[16:1],4h[16:1],1h[16:1],4h[16:1],
{8}1h[2:1]x,4,4,8,4h[16:1],5h[12:1],6h[8:1],7h[8:1],
{24}6h[24:1],7h[24:1],6h[24:1],7h[24:1],6h[24:1],7h[24:1],6h[24:1],7h[24:1],6h[24:1],7h[24:1],,,
{8}8<5[8:1]/4>1[8:1],,8bq4[8:1]/4bq8[8:1],,
{8}8<5[8:1]/4>1[8:1],,8bq4[8:1]/4bq8[8:1],,8<4[2:1]/4>8[2:1],,,,,,,,
{8}2-8[8:1],2,7-3[8:1],7,4-6[8:1],4,7-3[8:1],7,
{8}2-8[8:1],2,
{8}4-1[8:1],4-8[8:1],4-7[8:1],,,,
{8}1b,1b,4b,5b,1b,4b,
{4}6p8-3q7>2qq3[4:3]b,,,,A3f,
{16}3/4,,2/5,,7,8,,8,,8,,1/7,8,2,6,,
{16}5/6,,4/7,,2,1,,1,,1,,2/8,1,7,3,,
{8}2>5[8:1],2,6p2[8:1],6,1q5[8:1],1,6pp1[8:3],6,
{4}1,,4v1[8:1]*-8[8:1],4b,
{8}3,3,4,2h[8:3],,,4,5,5h[8:1]/3h[8:1],,4h[8:1]/2h[8:1],,1h[8:1]/3h[8:1],,8>5[4:3],8h[1:1],
{4},,,,
{8},,1/2,,2/4,2/4,,,
{8}3,3,4,2h[8:3],,,4,5,5h[8:1]/3h[8:1],,4h[8:1]/2h[8:1],,1h[8:1]/3h[8:1],,8-5-1-4-2[1:1],8h[8:9],,,
{4},,,,,
{16}3/4,,2/4,,3,2,3,4,3,,
{16}6,5,6,5,6-3[8:1],7,6-1[8:1],,6-2[8:1],,,,,,,,,,
{8}1-4[8:1],1-6[8:1],1-5[8:1],1>4[8:1],1<6[8:1],1,1b,,
{8}2>5[8:1],5-2[8:1],
{8}2-7[8:1],7>2[8:1],6-2[8:1],6,6<5[8:3],,,5x<1[4:1],,1x>5[4:1],Cf,5x<1[4:1],Cf,1x>5[4:1],Cf,5x<1[4:1],Cf,1x>5[4:1],,,
{8}5x-1[8:1],,4-2[8:1],3,5-1[8:1],6,4-2[8:1],3,5/4-7[8:1],,4/1,1,4-7[8:1]/2,2,4/3,,
{8}2-5[8:1],6-3[8:1],2-7[8:1],6-1[8:1],2>5[8:1],,
{8}2-6[8:1],,2/7-5[8:1],8,2-6[8:1]/7,4,
{8}2/7,1,3,4b/5b,
{8}2,1/8-4[8:1],7,1-5[8:1]/8,2,1/8-4[8:1],7,8,1>3[8:1],
{8}8-6[8:1],1,8-4[8:1],1,8p3[8:1],1,8<5[8:1],1,,
{8}3>1[8:1],4,3/6<8[8:1],5,3>1[8:1]/6,4,3/6,5,
{8}7<4[8:1],8,1,2<7[8:1],3,4,5>2[8:1],
{8}6,5,
{8}7-3[8:1],7,6-1[8:1],6,,
(80)
{16}7-4[16:1],4-8[16:1],8-3[16:1],3>6[8:3],7,,,,4v7<6-4qq2-4<5[4:1]b,,,,,,,,
(160)
{8}1-5[8:1],1,2-6[8:1],2,3-7[8:1],3,
{16}8-4[8:1],,8,,7-3[8:1],,7,,6,,6,,2,4,3,7,
{16}5,6,1,3,2,8,6,7,4,5,3,6,2,7,1,8,
{16}2b,8,4,6,2b,8,1,7,8b,6,2,7,3b,1,4,6,6b,5,
{32}1,,8,,1,2,3,4,1,2,3,4,
{32}8,7,6,5,8,7,6,5,
{16}2,7,3b,1,4,6,6b,5,7,3,4,2,
{32}5,6,7,8,1,2,3,4,5w1[2:3],6,7,8,1,2,3,4,5b,
