&title=漸近線上の恋
&artist=愛猫コンストラクション; 歌愛ユキ
&first=0
&des=who?
&lv_5=13
&inote_5=(136)
{1},
{16}
6h[16:3]/4h[8:1],,,,5xpp1[8:3],,,,,,,,,,,,
2h[16:3]/8h[8:1],,,,1xpp5[8:3],,,,,,,,,,,,
4h[8:1]/6h[16:3],,,,5V73-1[8:3],5,7h[8:3],,,,,,,,,,
2h[8:1]/8,,1,1,2,8,1,,7,8,6,8,7-3b[8:1],8,6,7,7h[8:1],,,,
1h[8:1],,4h[8:1],,2qq4[8:3],,3,,5h[4:1],,,,
,,,,E6/B6,,,,7h[8:1],,5h[8:1],,B6h[8:1]/E6h[8:1],,,,
2h[4:1],,,,8h[8:1],,5h[8:1],,7h[8:1],,6h[8:1],,1-4[8:1],,4h[8:1],,,,,,1xqq4b[8:3],,,,,,,,,,,,
6V82[4:1],,4h[4:1],,6,,,,6V42[4:1],,8h[4:1],,6,,,,
6-1[8:1],,4-1[8:1],,6,,4,,7-4[8:1],,1-4[8:1],,7,,1,,
8V25b[4:1],,E6/B6,,8,,,,2V84[4:1],,B6/E6,,2,,,,7-2-8b[4:1],,B6/E6,,7,,,,3-5[8:1],,7-1[8:1],,E4,,E8,,
6h[8:1],,2h[8:1],,5>2[8:1],,1,,5h[8:1],,,,4>1[8:1],,8,,
4h[8:1],,,,3>8[8:1],,7>2[8:1],,3,,,,B6/E6,,,,
3-5[8:1],,2-6[8:1],,3,,2,,3-6[8:1],,2-7[8:1],,3,,2,,
3-7[8:1],,2-8[8:1],,,,,,3>5[4:1],,,,,,,,
Cf,,,,
3x,4,5-3[8:1],,6V82[4:1],,,,,,,,A4/B4h[8:1],,,,
7,6,5-8[8:1],,1-4[8:1],,,,,,,,E1f/D1,,,,
6,5,4-8[8:1],,2V46[4:1],,,,,,,,B1h[8:1]/A1,,,,
2,,2-8[8:1],,3/4-6[8:1],,E2,,E5,,Chf[8:1],,
,,,,
7/8-4[8:1],,1,,28,,3,,1-5[8:1]/2,,8,,17,,6,,
7/8-6[8:1],,1,,2-4[8:1]/8,,3,,12,,8,,
17,,,,
5-8[8:1]/6,,4,,35,,2,,3/4-1[8:1],,5,,
46,,7,,,,36,,4h[4:1]/5h[4:1],,,,,,,,
{4}
Ch[4:1],,,,7xh[4:1]/8xh[4:1],,,,
4xh[4:1]/E6h[4:1],{16},,,C,,,,,,,,,
{4}
1xh[4:1]/2xh[4:1],,,1x/2x,
Ch[4:1],,,,3xh[4:1]/4xh[4:1],,{8},E6,B6,,
{4}
E2h[4:1]/8xh[4:1],{16},,,C,,,,,,,E6,,
{4}
5x-2[8:1]/6x-1[8:1],,
Chf[2:1],,
{4}
1>8[1:2],,,,E2,B2,B3,E4,
5qq1[8:13],,,,6-8[8:1],,8-4[8:1],,
2xh[16:3]/5h[4:7],{64}E2,B1,,,{16},,,{4}7h[16:3],{64}E8,B8,,,{16},,,
3-7>2-6b[8:3],,,,,,,,,,,,1x,,,,
4xh[2:3]/7h[16:3],,,,{64}E8,B8,,,{16},,,{4}2h[16:3],{64}E2,B1,,,{16},,,
6-2b[8:1],,,,,,,,2w6[8:1],,,,,,,,
{8}
3V17[4:1],7h[4:1],3,,3V57[4:1],7h[4:1],3,,
3-8[8:1],5-8[8:1],3,5,2-5[8:1],8-5[8:1],2,8,
3-6-4[4:1],E2h[8:1],3,,1-6-8[4:1],E3h[8:1],1,,
2-6-2[4:1],Ch[8:1],2,,8-6[8:1],1-3[8:1],E8,E2,
E5h[8:1],,2pp8[8:3],1,2h[8:1],,1p8b[4:1],2,1h[8:1],,
2<7[8:1],8x>3[8:1],2x,,B6/E6,,
3-5[8:1],2-6[8:1],3-7[8:1],2-8[8:1],3-5[8:1],2-6[8:1],3-7[8:1],2-8[8:1],3-5[8:1],2-6[8:1],3,2,3>5[4:1],,,,Cf,,
{16}
,,,,7xh[8:1],,8,7,,7,1h[8:1],,
E7h[4:1]/B7h[4:1]/E8h[4:1],,,,,,2x,,2h[4:1]/3>5[4:1],,,,,,,,
Cf,,,,,,,,2xh[8:1],,1,2,,2,8h[8:1],,
E2h[4:1]/B2h[4:1]/E3h[4:1],,,,,,7x,,6p3[8:3]/7h[4:1],,,,,,,,
E1f,,E8,,E7,,E6,,2x,,2x/4x,,2xh[8:1]/3xh[8:1],,,,
8h[8:1],,1,8,,8,2h[8:3],,3q6[8:3],,,,,,,,
E1f,,E2,,E3,,E4,,7,,57,,6h[8:1]/7h[8:1],,,,
1h[8:3]/8h[4:1],,,,,,,,
Ch[4:1],,,,E5,,,,
