&title=お願い!コンコンお稲荷さま
&artist=ARM×狐夢想 feat. ななひら
&first=0
&des=FFFFLaN
&demo_seek=55.50
&lv_5=14
&des_5=FFFFLaN
&inote_5=
(175){4},,,,{2}4w8[8:1],
{8}6/2,6/2,{4}2/6h[4:1],
{16}1,2,3,4,8,7,6-1[8:1],5,,,{8}4,{4}2b-5[8:1],
{8}2/1,8,1/7,6,5/4,{16}3,2,{8}1/5-1[8:1],6,
5/4-8[8:1],3,4/5,6,{16}5/1,6/2,3/7,8/4,{8}5/1,5-2[8:1]/1-6[8:1],
,1/5,,1/5,{16}6/2,3,4,5,8,7,6,5,
{4}4-8[8:1]/1-5[8:1],1/4,{16}7x,7x,,2x,{8}2x,8x,
2-5[8:1],1,2/8,7,7-4[8:1],8,7/1,{16}1,2,
{8}3/8,{16}8,7,{8}6/2,{24}2,3,4,{16}5x,6x,7x,8x,1x-5[4:3],2x,3x,4x,
,,,,,,,,,,,,,,,,,,1,
8,{8}1h[8:1],7h[4:1],{4}2h[4:1],C,
{8}5/4,{16}3,4,{8}3,{16}6,5,{8}6,{16}3,4,{4}2b,
{8}4/5,{16}6,5,{8}6,{16}3,4,{8}3,{16}6b,5,{4}7b,
{16}2-5[8:1],1,3,1,{4}2,{16}7-4[8:1],8,6,8,{4}7>4[8:3],
{8}5,6,7,8,{4}1-5[8:1],1,
{8}4/3,{16}2,5,{8}2,{16}7,4,{8}7,{16}1,5,{4}1b,
{8}5/6,{16}7,4,{8}7,{16}2,5,{8}2,{16}8b,4,{8}8b-4[8:1],1-5[8:1],
8,1,8-3[8:1],1-6[8:1],8,1,8<5[8:1],1>4[8:1],
8-4[8:1],1-5[8:1],8,1,8h[4:1],{16}7x,6x,5x,4x,3x,2x,
{8}1b,{16}6,5,{8}6,{16}3,4,{8}3,{16}6,5,{4}7b,
{8}1/8,{16}3,4,{8}3,{16}6,5,{8}6,{16}3b,4,{4}2b,
{16}6-1[8:1],5,7,5,{4}6,{16}3-8[8:1],4,2,4,{4}3<8[8:3],
{8}1,2,3,4,{4}5-1[8:1],5,
{8}8/7,{16}6,1,{8}6,{16}3,8,{8}3,{16}5,1,{4}5b,
{8}1/2,{16}3,8,{8}3,{16}6,1,{8}6,{16}4b,8,{4}4b>5[4:3],
{8},,,,,,,,6h[2:1],
,,3,{4}3h[4:1],{8}4,5,
6/3qq8[4:3],7,{4}8,{8}E5,E6,E7,E8,
6pp1[4:3],,,B3/E3/B2,,5,5,4,
{16}3h[16:3],,,4,{8}3,3,{16}6h[16:3],,,5,{8}6,6,
B4,B7,E2,E6,{4}Ch[4:1],{8}1,8,
7/2pp5[4:3],6,{4}5,{8}E1,E8,E7,E6,
7qq4[2:1],1x,1x,1x,1x,2x,3x,3x,
{1}6h[2:1]/2h[2:1],
{4}8x-4[8:1],{8}8x,1x,{4}2x-6[8:1],2x,
7x/5x,{16}6,6,4,4,{4}5xv8[8:1]/3xv8[8:1],C,
7x/1x,{16}2,2,8,8,{4}7xv4[8:1]/1xv4[8:1],C,
{16}6,5,{8}6,{16}3,4,{8}3,{16}7,5,{8}6,{16}2,4,{8}3,
{16}8,1,7,2,6,3,5,4,6,5,8,1,4,3,8,1,
{1}2h[1:1]/7p4[2:1],
{8}5,5,5w1[8:1],5,{4}5,2-7[8:1]/6-3[8:1],
2b/6b,{8}7/8-4[8:1],1,{4}8/2,{8}5/3-8[8:1],6,
{16}3/7-5[8:1],,,7,{8}7x/1x>4[8:1],2x,{4}5x/1x,{8}5,5,
{4}4/6-1[8:1],{8}5/6,2,{16}3x,4,,6x,{8}5pp1[8:3],4x,
{2}3x/5,{16}2,4,,6,{8}5,{16}3>1[8:1],4,
{8}3x,{16}E7,E6,{8}E5,8x,7/1,{16}6,5,{8}6,2>4[8:1],
2x/1x,{16}E6,E7,{8}E8,1x,{4}2/7-4[8:1],8,
{16}2x-5[8:1],,,1,{8}2,8,{16}7x-4[8:1],,,8,{8}7,1>5[8:3],
,6b,7b,8b,{4}1b-5[8:1],{8}1x,2,
{4}3-7[8:1]/4-8[8:1],4/3,6-2[8:1]/5-1[8:1],5/6,
{16}8/1,,,2x/7x,{8}2x-6[8:1]/7x-3[8:1],5/4,{4}C,{8}6/5,7/4,
{16}3/8<5[8:1],,,1,{8}8,2,{16}3x/4x,3x/4x,,,{8}6/5,8/1,
{4}7/2h[4:1],{32}8x,7x,6x,5x,4x,3x,2x,1x,{2}8xw4[8:1],
{8}1>4[8:1],1,7<4[8:1],7,{4}8-4[8:1],{8}8,7,
6-2[8:1]/5-2[8:1],6/5,,,{2}3>8[8:1]/4<7[8:1],
{48}E1,C,{24}E5,,,,,{4}8/2-5[8:1],2/7-4[8:1],7/1-5[8:1],
1/8,{8}6/4,3/7,{4}8-4[8:1]/2-6[8:1],2/8,
{16}5/3-8[8:1],,,4,{8}3,5,{16}4/6-1[8:1],,,5,{8}6,4,
{16}5/3-8[8:1],,,4,{8}3,5,{16}4/6-1[8:1],,,5,{8}6,4,
{2}8h[4:1]/1h[4:1],{8}2b-6[8:1]/7b-3[8:1],2b/7b,{4}7b/2b,
{8}5/4,{16}4-8[8:1]/5-1[8:1],3/6,{4}2/7,{8},1b/8b,{4}2b-6[8:1]/7b-3[8:1],
(87.5){1}7/Cf/2>8[8:5],
{16},,6,5,4,3,{8}4,6h[4:1],{16}7,8,{4}1-6[16:3],
{2}2-5[16:3],{8}8,{16}E8,E7,{8}E6,4h[8:1],
{4}6-1[16:3],{8}5,4,{4}3,2q5[8:3],
8,{8}8,7,6,{16}5,4,{4}3qq8[4:1],
{8}4,{16}5,6,{8}7p5[4:1],7,{16}1,2,{8}3,{4}4,
{8}6q1[4:1],{16}5,5,,4,{8}4,2-5[8:1],4,{4}2>4-8[4:1],
{8}1,{16}7-3[8:1],6,{8}5,7,8-4[8:1],2,{16},,,,(175)5/3h[16:3],
,,4,{8}3,5,{16}4/6h[16:3],,,5,{8}6,4,
{16}5/3h[16:3],,,4,{8}3,5,6/4,3,{4}5/2,
{8}4h[8:1],5h[8:1],6h[8:1],7h[8:1],8h[8:1],1h[8:1],2h[8:1],3h[8:1],
{2}4h[2:1],6h[1:1],
{4}1,1,{2}1h[2:1],
{8}5h[8:3],,,3h[8:5],{4}8,8,
{1}8p5[2:1]*q3[2:1],
{8}4/8,B2,{4}E2,B6,{8}E5,B3,
2/6,B7,{4}E8,B3,{8}E5,B6,
3/7,3/7,2/6,2/6,{16}1/5,2,3,4,1/5,8,7,6,
{8}5/1b,1,1w5[8:1],1,{4}1,3-6[8:1]/7-2[8:1],
3b/7b,{8}2/1-5[8:1],8,{4}1/7,{8}4/6-1[8:1],3,
{16}6/2-4[8:1],,,2,{8}2x/8x<5[8:1],7x,{4}4x/8x,{8}4,4,
{4}5/3-8[8:1],{8}4/3,7,{16}6x,5/6,,3x,{8}3/4qq8[8:3],5x,
6x/4,5,6,7,{16}6,5,1,2,4,3,7>1[8:1],5,
{8}6x,{16}E3,E4,{8}E5,6x,7/5,{16}3,4,{8}3,7<5[8:1],
7x/8x,{16}E4,E3,{8}E2,8x,{4}7/2-5[8:1],1,
{16}8x/7x-4[8:1],,,8,{8}7,1,{16}1x/2x-5[8:1],,,1,{8}2,8,
,6b/5b,3b/4b,1b/8b,{4}2b/7b-3[8:1],{8}7x/3x,4,
{4}6/5-1[8:1],{8}5/6,8,{4}3/4-8[8:1],{8}4/3,1,
{16}2/7,,,6x/3x,{8}6x-2[8:1]/3x-7[8:1],4/5,{4}C,{8}3/4,2/5,
{16}6/1>4[8:1],,,8,{8}1,7,{16}6x/5x,6x/5x,,,{8}3/4,1/8,
{4}2/7h[4:1],{32}1x,2x,3x,4x,5x,6x,7x,8x,{4}1xw5[8:1],1,
{8}3/8<5[8:1],8,8/2>5[8:1],2,{4}2/1-5[8:1],{8}1,2,
3-7[8:1]/4-7[8:1],3/4,,,{2}6<1[8:1]/5>2[8:1],
{48}E1,C,{24}E5,,,,,{4}1/7-4[8:1],7/2-5[8:1],2/8-4[8:1],
8/1,{8}3/5,6/2,{4}1-5[8:1]/7-3[8:1],7/1,
{16}4/6-1[8:1],,,5,{8}6,4,{16}5/3-8[8:1],,,4,{8}3,5,
{16}1/7-4[8:1],,,8,{8}7,1,{16}8/2-5[8:1],,,1,{8}2,8,
{2}1h[4:1]/7h[4:1],{8}6bv1[8:1]/2bv5[8:1],6b/2b,{4}2b/6b/C,
{8}4/5,{16}5-1[8:1]/4-8[8:1],6/3,{8}7/2,4/5,,8b/1b,{4}7b-3[8:1]/2b-6[8:1],
{1}2/Cf/7<1[2:1],
{4}2>5[8:1],7p3[8:1],1q5[8:1],8p4[8:1],
2q6[8:1],7<4[8:1],3>8[8:1],6q2[8:1],
4b-8[8:1],3b-7[8:1],2b-6[8:1],1bw5[8:1],
1/Cf,{8}2/8,3,4/6,7,5/3,{16}2,3,
{8}4/8,{16}8,7,{8}6/1,{24}1,2,3,{16}5x/4,6x,7x,8x,1x,2x,3x,4x,
{8}5,{16}4,4,{8}4-8[8:1],6,{4}7h[4:1],{8}1,2>4[8:1],
{16},,8,7,{8}6,5-1[8:1],{4}1w5[8:1],Cf,
E
