&title=点心爛漫!ふぁんはおれ
&artist=La prière
&first=0
&des=Tane
&lv_4=10+
&lv_5=11+
&inote_4=(159){1},
{1}4w8[8:5],
{2}12,78,
{4}34,45,56,56,
{4}28,34,17,18,
{4}18,27,36,,
{4}68,,13,,
{4}65,45,34,2,
{4}1,2,8,7,
{4}45,45,36,36,
{8}2b/7b,,1,1,
8,7,6,5,
{4}2-4[8:1],7-3[8:1],1-5[8:1],,
{8}7,7,8,8,
6,,12,,
{8}3-8[8:1],,7,,
78,16,25,,
{8}72,,8,8,
1,2,3,4,
{4}7-5[8:1],2-6[8:1],8-4[8:1],,
{8}2,2,1,1,
3,,87,6b/1b,
{16},,,,
3b/8b,,,,
1b/8b,,,,
,,,,
{8}34,,34,,
2,2,4,,
{8}12,,12,,
2,2,1,,
{8}34,,12,,
2,1,2,1,
{8}8p5[2:1],,,,
,,,,
{8}34,,56,,
6,5,6,5,
{4}7V15[2:1],1,,3,
{4}4b-1[8:1],,{8}5b-8[8:1],,,2b-7[8:1],
{8},,6,,
56,,,,
{8}65,,65,,
7,7,5,,
{8}87,,87,,
7,7,8,,
{8}65,,87,,
7,8,7,8,
{4}7-3[8:1]/1s5[8:1],,8z4[8:1]/2s6[8:1],,
{8}65,,43,,
3,4,3,4,
{4}2V84[2:1],8,,6,
{8}56,,3,,
34,,3,2,
{4}1-4[8:1]/8-5[8:1],,18,27,
{8}1q6[8:3],,5,6,
7^4[8:2],,4,3,
{8}2,1,8,7,
6,,,,
{4}12,12,67,67,
{4}34,34,{8}5,6,7,,
{8}8p3[8:3],,4,3,
2^5[8:2],,5,6,
{8}7,8,1,2,
3,,,,
{4}78,78,23,{8}23,1b/4b,
{8},32,1b/4b,32,
1b/4b,,,,
{8}1-5[8:1]/8,,8,,
7,6,5,4,
{8}34,3,45,5,
34,,3,4,
{8}25,,6,5,
4-1[8:1]/7,,,,
{8}4pp4[4:1]*qq4[4:1],,,,
,,3,3,
{8}1,,6,6,
7,8,1,,
{4}2V48[8:3]/5z1[8:3],,,,
{8}1,8,2,7,
1,8,,1b/8b,
{8},,4b-2[8:1]/5b-7[8:1],,
,,3,2,
{8}8-4[8:1]/1,,1,,
2,3,4,5,
{8}65,6,54,4,
65,,6,5,
{8}74,,3,4,
5-8[8:1]/2,,,,
{8}4z8[8:3],,,,
,,6,6,
{8}8,,3,3,
2,1,8,7,
{8}78,78,12,12,
38,,,,
{8}8,7,4,5,
3,2,5,1,
{4}78,78,1q5[8:1]/2p5[8:1],,
{8}78,,12,,
{16}34,,,45,
,,56,,
{4}5pp5[8:3]*qq5[8:3],,,,
{8}3,3,3,4,
3,,3,4,
{8}3,4,3,,
1,2,3,4,
{8}8^5[8:1],,,,
1^4[8:1],,,,
{4}56,12,34,78,
{8}6,6,6,5,
6,,6,5,
{8}6,5,6,,
8,7,6,5,
{8}1^4[8:1],,,,
8^5[8:1],,,,
{4}43,87,65,21,
{8}1b>5[4:6],,,,
,,,,{1},
{8}1s5[4:6],,,,
,,,,{1},
{8}4-1[2:1],,,,
,,,,
{8}5-8[2:1],,,,
,,,,
{4}4>5[2:2],,,,
{2},4-1[8:1]/5-8[8:1],
{4}8b/1b,,1b/8b,,
{8}1b/8b,,27,,
8b/1b,,36,27,
{8}1b/8b,,36,27,
1b-4[8:1]/8b-5[8:1],,,,
{4}1b/8b,45,1b/8b,{8}4,3,
{8}1b/2b,,7,,
1b/2b,,5,,
{8}7b/8b,,4,,{8}7b/8b,,5,6,
{4}7h[4:1],5,2h[4:1],{8}1,,
{8}3b/6b,,4bpp6[8:1]/5bqq3[8:1],,
,,,,
{8}8-4[8:1]/1,,1,,
2,3,4,5,
{8}64,5,35,4,
46,,5,6,
{8}74,,4,3,
5-8[8:1]/2,,,,
{8}4qq4[4:1]*pp4[4:1],,,,
,,6,6,
{8}8,,3,3,
2,1,8,,
{4}7V51[8:3]/4z8[8:3],,,,
{8}8,8,1,1,
27,27,,8b/1b,
{8},,5b-7[8:1]/4b-2[8:1],,
,,6,7,
{8}1-5[8:1]/8,,8,,
7,6,5,4,
{8}35,4,46,5,
35,,4,3,
{8}25,,5,6,
4-1[8:1]/7,,,,
{8}5s1[8:3],,,,
,,3,3,
{8}1,,6,6,
7,8,1,2,
{8}21,21,87,87,
61,,,,
{8}1,2,5,4,
6,7,4,8,
{4}21,21,8p4[8:1]/7q4[8:1],,
{8}21,,87,,
{16}65,,,54,
,,43,,
{4}4qq3[8:3]*pp5[8:3],,,,
{8}36,,4,4,
5,6,7,8,
{4}3-1[8:1],6-2[8:1],4-8[8:1],,
{8}6,6,5,5,
7,,43,,
{8}2-5[8:1],,6,,
65,47,38,,
{8}63,,5,5,
4,3,2,1,
{4}6-8[8:1],3-7[8:1],5-1[8:1],,
{8}3,3,4,4,
2,,56,7b/4b,
{16},,,,
2b/5b,,,,
4b/5b,,,,
,,,,
&inote_5=(159){1},
{1}4w8[8:5],
{2}1h[8:3]/5h[8:3],3h[8:3]/4h[8:3],
{2}4h[8:3]/8h[8:3],{8}56,,5-2[8:1]/4,,
{4}57,5/4-7[8:1],34,18,
{4}1^4[4:1],4^7[4:1],7,,
{2}4h[8:3]/8h[8:3],2h[8:3]/6h[8:3],
{4}2-5[8:1],7-4[8:1],1-5[8:1],8,
{8}6,7,8,1,{16}2,,3,4,
3,,2,,
{4}1-5[8:1],7-4[8:1],2-5[8:1],8-4[8:1],
{4}1b,{8}2,1,{16}8,,7,8,
7,,6,,
{8}5,4,3,2,
1-5[8:1],,,,
{16}8,,7,,
6,,5,,
4-7[8:1],,3,,
2,,,,
{16}78,,7,,
1,6,1,,
7,8,6,1,
5,,,,
{4}8,{8}7,8,{16}1,,2,1,
2,,3,,
{8}4,5,6,7,
8-4[8:1],,,,
{16}3,,4,,
5,,6,,
7-3[8:1],,,,
37,,1b,,
{16},,6,,
4b/7b,,3,,
2b/5b,,,,
,,,,
{16}34,,,,
78,,,1,
8-4[8:1],,2,,
3,,,,
{16}1>5[8:1]*q5[8:1],,,,
1,,,,
6h[4:1],,5,,
5,,,,
{16}34,,,,
1-5[8:1]/7,,,7,
7,,,,
8^5[4:1],,,,
{8}5^2[4:1],,2,,
1,8,7,6,
{16}45,,,,
21,,,8,
1-5[8:1],,7,,
6,,7,,
{16}8,,1,,
2-5[8:1]/8,,,8,
8,,,,
6,,5,,
{4}7b/4b-1[8:1]*-7[8:1],,{8}5b-1[8:1],,2,3b-8[8:1],
{8},6,7-4[8:1],8,
7,,,,
{16}2-5[8:1],,,,
82,,,6h[16:7],
5,,5,,
5,,5,,
{8}5,4,3,2,
1,8,7^2[8:1],,
{8}2,3,4,5,
6,7,8,1,
{4}2-6[8:1]/8z4[8:1],2b/8b,1s5[8:1]/7z3[8:1],1b/7b,
{16}7-4[8:1],,,,
17,,,3h[16:7],
4,,4,,
4,,4,,
{8}5,6,{16}7-4[8:1],,,1,
{8}1,,3-8[8:1]/4-8[8:1],,
{8}3b/4b,,5-1[8:1]/6-1[8:1],,
5b/6b,,3,2,
{4}1-5[4:1],5-8[4:1],8-4[4:1],,
{8}8,,7-4[8:1],16,
,,1-5[8:1],28,
{8}7,,4-7[8:1],36,
,,2,,
{4}1-5[8:1],1,7-3[8:1],7,
{4}2-5[8:1],2,{8}5,6,7,8,
{8}1,,2-5[8:1],83,
,,8-4[8:1],71,
{8}2,,5-2[8:1],63,
,,7,,
{4}8-4[8:1],8,2-6[8:1],{8}2,8b,
{8},3,7b/8b,5,
3b-8[8:1]/4b-7[8:1],,,,
{16}1-5[8:1]/8,,,8,
1,,8,,
7-4[8:1],,7,,
3-8[8:1],,3,,
{4}7-4[8:1],7/1-5[8:1],18,{8}3,2,
{8}1^4[8:1]/7,,6,7,
8-5[8:1]/3,,1,,
{8}4^1[8:1],,7^4[8:1],,
1,,2-5[8:1]/1,,
{8}28,,2-5[8:1],1,
2,6,7,8,
{8}1-5[8:1],8-4[8:1],1<3[4:1],,
,8b,{16}8b,,3,4,
{8}3,4,5,6,
7,7-4[8:1],,7b/8b,
{8}3-8[8:1],,4b-7[8:1]/3b,,
3b/4b,,3,2,
{16}8-4[8:1]/1,,,1,
8,,1,,
2-5[8:1],,2,,
6-1[8:1],,6,,
{4}2-5[8:1],2/8-4[8:1],81,{8}6,7,
{8}8^5[8:1]/2,,3,2,
1-4[8:1]/6,,8,,
{8}5^8[8:1],,2^5[8:1],,
8,,7-4[8:1]/8,,
{16}71,,,8,{8}7-4[8:1],8,
7,8,1,2,
{8}2-7[8:1],6-3[8:1]*-3[8:1],2,6,
2,1b,{16}1b,,6,5,
{16}7,,8,,
1,,2,,
3,,3,4,
2,,6,5,
{4}7-4[8:1],7,1q5[8:1]/2v5[8:1],12,
{4}1b-5[8:1]/8b-4[8:1],1b/8b,{16}45,,3b,34,
,6,6b/8b,,
{4}8-2[8:1],5pp5[4:1]*qq5[4:1],,,
{8}2,4,5,3,
2,,2,3,
{8}5,4,2,{16}3,4,
1,,2,,
2,,1,,
{16}8,,7,8,
6,,1,,
2,1,3,,
8,,7,,
{12}6,5,7,
3,4,2,
6,4,8,
3,5,1,
{8}7,,46,,
6,,74,,
{8}47,,56,{16}6,5,
8,,7,,
7,,8,,
{16}1,,2,1,
3,,8,,
7,8,6,,
1,,2,,
{12}3,4,2,
6,5,7,
3,5,1,
6,4,8,
{8}1b>5[4:3],,,,
,,,6p2[4:3],{1},
{8}1s5[4:3],,,,
,,,8-5[4:3],{1},
{8}4,5,6,7,
,,1,,
{8}5,4,3,2,
,,8,,
{4},,2h[8:3]/7h[8:3],,
{2}3h[8:3]/6h[8:3],4-1[8:1]/5-8[8:1],
{4}8b/1b>4[8:1],,1b/8b>4[8:1],,
{4}1b>5[8:1],,8b>5[8:1],,
{4}1b-5[8:1]/2b-4[8:1],,7b-5[8:1]/8b-4[8:1],,
{4}2b-4[8:1],1-5[8:1]/2,1b/8b,{8}7-4[8:1],8,
{8}7b,,1-5[8:1],8,
1b,6,7-3[8:1],8,
{8}7b,8,2-6[8:1],1,{8}2b,,6,5,
{16}3,4,3,,
2,1,2,,
7,8,7,,
27,,3/6,,
{8},3b/6b,4bpp6[8:1]/5bqq3[8:1],2b/7b,
4b/5b,,,,
{16}8-4[8:1]/1,,,1,
8,,1,,
2h[8:1]/5h[8:1],,,6h[8:1]/5h[8:1],
,,74,,
{8}2-5[8:1],2,8-4[8:1],8,
1,,6,7,
{8}8-4[8:1]/2,,3,2,
1v6[8:1]/6,,8,,
{8}5^2[8:1],,8^5[8:1],,
1,,2-5[8:1]/1,8,
{8}27,,2-5[8:1]/1,8,
27,6,7,8,
{8}1-5[8:1],8-4[8:1],1z5[4:1],,
,8b,{16}8b,,6,5,
{8}6,5,4,3,
2,2-5[8:1],,2b/1b,
{8}6-1[8:1],,5b-2[8:1]/6b,,
6b/5b,,6,7,
{16}1-5[8:1]/8,,,8,
1,,8,,
7-4[8:1],,7,,
3-8[8:1],,3,,
{4}7-4[8:1],7/1-5[8:1],18,{8}3,2,
{8}1-5[8:1]/7,,6,7,
8v3[8:1]/3,,1,,
{8}4^1[8:1],,7^4[8:1],,
1,,2-5[8:1]/1,,
{16}1-6[8:1]/2,,,2,{8}1,2,
{16}3,,5,4,
6,,7,,
{8}7^2[8:1],3^6[8:1],7,3,
7,8b,{16}8b,,3,4,
{16}2,,1,,
8,,7,,
6,,6,5,
7,,3,4,
{4}2-5[8:1],2,8p4[8:1]/7q4[8:1],87,
{4}8b-4[8:1]/1b-5[8:1],8b/1b,{16}54,,6b,65,
,3,3b/1b,,
{4}1-7[8:1],3v4[8:1],,,
{8}8,8,7,8,{16}1,,2,1,
2,,3,,
{16}4,,5,4,
6,,7,,
{8}8-4[8:1],,,,
{16}1,,2,,
3,,4,,
5-2[8:1],,6,,
7,,,,
{16}21,,2,,
8,3,8,,
2,1,3,8,
4,,,,
{8}1,1,2,1,{16}8,,7,8,
7,,6,,
{16}5,,4,5,
3,,2,,
{8}1-5[8:1],,,,
{16}6,,5,,
4,,3,,
2-6[8:1],,,,
62,,8b,,
{16},,1,,
5b/2b,,8,,
7b-2[8:1]/4b,,,,
,,,,
