&title=YOUNITHM
&artist=大国奏音
&first=0
&des=mxtax
&lv_6=X
&des_6=mxtax
&inote_6=
(260){4},,,,,,,,6pp1[0.4615##0.9231],
5,4,3h[1:1],
,,,,1qq6[0.4615##0.9231],
2,3,4,
B2/E2,{16}A2,E3,B3,B4,{4}E5,C,
7pp2[0.4615##0.9231],6,4,3,
,B4,{2}B5,
{4}1s5[0.4615##0.9231],3,5z1b[0.4615##0.4615],7,
,,,,3,
2,1p4[0.4615##0.4615],5,
{1}7<3b[0.4615##0.4615],
{4}2,1,8q5[0.4615##0.4615],4,
{1}5V71b[0.4615##0.4615],
{4}5,6,7h[4:3],1,
2,3,6/4-8-2[0.4615##0.4615],4,
6,6,7,8h[2:1],
,B2/E2/A2/E3,{2}E6/A6/D6/B6,
{16}7b/8b,6/1,2/5,4/3h[16:13],,,,,{2}6<2q5[0.4615##1.6154],
,4,
E3/B2/A2,{4}1,1-4[0.4615##0.4615]*v6[0.4615##0.4615],
,1,,,{2}8q1[0.4615##0.9231],
{16}E7,B6,{8}B5,,,{2}C,
{16}B4,B3,{8}E3,,,{4}7/1,
2,3/5,7-5-8v3[0.4615##0.6923],
,1,{2}1,
2>5s1<6[0.4615##2.0769],7h[2:1],
,B1/A1/D2/E2,
A7/E8/D8,{4}5,5-3-6b[0.4615##0.4615],
,,,,{2}5/7z3[0.4615##0.4615],
2<3[0.4615##0.6923],
{1}2,
{24}6pp1[0.4615##0.5769],7,{12}8,{4},,,{16},{48},{24}E3,
B3,B4,E5,,,,,,,,,{2}6w2[0.4615##3.2308]/4w8b[0.4615##3.2308],
{1},,,,{8}6bh[2:1],
{24},,,,,,E6,B5,B4,{2}3xh[1:1]/E4,
{24}8h[2:1],,,,,,,,,,,,,E8,B7,B6,{48}E6,5xh[16:17],,,,,,,,,,,,,,,{24}A3,
D3,A2,D2,,,,,,,,,B4,B3,B2,B1,{48},,,,,,,,,,,,,,,,{16}8,
7,6,5,B1,B2,B3,B4,{32}8,D8,7,D7,6,D6,5,D5,4,D4,3,D3,2,D2,1,D1,
{4}8b-6[16:3],8/1,8-5[16:3],8/4-2[16:3],
4,7>2[16:3],7/3v6[16:3],3V17V13[4:3],
3,5,5-1[16:3],5,
{8}2,2,{16}7-2[16:3]*-3[16:3],6,{8}5,{4}7,4h[8:1]/1h[8:1],
1-4[16:3]/4-8[16:3],4-2[16:3]/1<6[16:3],{32},,,,,,,,A5,A1,B5,B1,{8}C,
{24}A8/A2,E8/E3,E7/E4,A6/A4,,,{4}7-1[16:3]/3-8[16:3],{2}3/7<2[2:1],
{8}8h,{16}8,7,{8}6,1h,{16}1,2,{8}3,6,4,
5,3,{16}7h[8:1]/E1,E2,{8}E3,{16}5h[8:1]/A4,A3,{8}A2,{16}1/6,2/7,3/8,4/1,
{4}5/2<5[4:3],2,3,4>1[4:1],
4,7-4[16:3],8-3[16:3],8,
5-7-1V75[4:3],3,3-7[4:1],3,
{8},,8h[16:1],1h[16:1],{4}2h[16:1],{8}7,6,
{16}3,5,3,5,{4}3,{16}8,2,8,2,8,7,6,5,
{4}4-7[16:3]/3-8[16:3],4/3,{16}1,2,3,4,{4}7-4[16:3]/5-1[16:3],
7/5,{16}3,2,1,8,{4}7/4h[4:1],{16}5,6,7,8,
1,2,3,4,5/1,6/2,7/3,8/4,{4}5/1w5[16:3],1b/Cf,
3bx>8[16:3],{24}A6f/E7,D6,A5,D5,A4,D4,{4}3x/7xh[4:5],3-5-2-6-1[4:3],
{8},,,,,,,,8b/7b,
1/6,,2b/3b,{4}7-3[16:3]/5-3[16:3],5/7,
{16}1,2,3,4,6,7,8,1,3,4,5,6,{4}8b-5[16:3],
8q4[16:3]*-3[16:3],8,{16}7,6,5/4,3,2/8,7,6,5,
{4}3/4p7[16:5],{8}2,2,,1p4[4:1]*q5[4:1],,1,
,,7,7,,E6/B6,{4}E4/B3,
{8}2,2,2,2,2/8,3/7,{4}6-2[16:3]/4-8[16:3],
{8},,1,C,2,C,3,C,
4,C,5,C,{16}8b/1b,E8/B1,B7/C,B6/B5,{4}A5,
{8}4,6h[16:1],3,6h[16:1],2,7h[16:1],1,8h[16:1],
2,8h[16:1],{4}3,{24}4b/7b,E7/B4,E6/C,A5/B8,,,{4}1bh[2:1],
{16}4,5,6,7,{4}8h[4:1],{16}3,4,5,6,{4}7/1<5[16:3],
{16}5,4,3,2,1,2,3,4,{4}8-3[16:3]/5-2[16:3],5/8,
1b,{8}8b/5b,8/5,,7,6,3,
{16}2,8,2,8,2,8,2,8,2,8,2,8,{4}2,
{8}1b/2b,1/2-5[8:1],,2/6,,6b-1[8:1],,6b/2,
{16}2,3,4,5,1,2,3,4,8,1,2,3,,,,,{8}5b/6b,
5/6-1[8:1],,6/2,,2b-5[8:1],,2b/6,
{16}6,7,8,1,5,6,7,8,4,5,6,7,,,,,{8}4b/2b,
2b/4-7[16:3],,4/8-3[16:3],,8,,6,
6-1-7[16:5],,,2>5[16:3],,2,,7,
{6}6/4,4/6,4/6,4/6h[2:1],{48},,,,{16}5,4,3,2,
{4}1h[1:1],{16}E4,E5,E6,E7,{2}8bxh[2:1]/E8,
{32}D8/D2,A7/A2,D7/D3,A6/A3,{8}D6/D4,{32},,,,,,,,7/8,6/1,2/5,4/3,,,,,,,,,,,,,8b/E3,
B3,B4,E5,,,,,,,,,7b/E2,C,{16}E6,{32},,,,,,,,6b/E1,B8,B7,E7,,,,,{16}5,
,,3,,,{8}4,{16},7,{48},,,,,,{12}6,4,5,
{2}3<7b[0.4615##0.2308]*>7[0.4615##0.2308],3,
{16}1>4-6[0.4615##0.4615],,,,,7,,,{8}8,{16}8,7,{4}6-2-4[0.4615##0.4615],
{16}8,,,,,7,,,7,,,6,,,{8}6,
{24}3,4,5,6,3,4,5,6,3,4,5,6,2,3,6,7,2,3,6,7,2,3,6,7,
{32}1b,2,3,4,5,6,7,8,1,2,3,4,5,6,7,8,1,2,3,4,5,6,7,8,1,2,3,4,5,6,7,8,
{2}1xh[1:4],{4}D7,E7,
,,D3,E3,
,,D5,E5,
,,D1,E1,
{2}5xh[2:9],E7,
E8,E1,
E2,E3,
{1}E4,
{4},,3xh[2:7],D4,
E4,,,D6,
E6,,,D8,
E8,,,D2,
E2,,,B6/B7,
{1}B3/B2,
8v1[0.4615##1.1538],
,7V14-6[0.4615##2.5385]/2-8-5-3b[0.4615##2.5385],
,,,{48}D1,
A8/A1,D8/D2,E8/E2,A7/A2,D7/D3,E7/E3,A6/A3,E6/E4,D6/D4,A5/A4,D5,{4},,,{1}Cf/B3/B4/D5/D6/B5/E6/B6/D7/D3/D2/E4/B2/D1/E2/D8/B8/B7/E8/E5f/E1f/E3f/E7f/B1/D4,
{32}8b/1b,7/2,3/6,4/5,,,,,,,,,,,,,7h/2h,3h/6h,{16}4h/5h,,,,,,,{8}2,
6,3,5,{4}4h[2:1],7,
7b-5-8[4:1],{8}2,2,,3,{4}3>7>3[2:1],
{8}7,6,{4}5-1[16:3],5-7[16:3]*-3[16:3],5,
{8}2,2h[16:1],8,8h[16:1],4,4h[16:1],,6,
{16}6,7,8,1,2/6,7,8,1,2/6,7,8,1,2/6,7,8,1,
{4}2>5[16:3],2/8,1/7<4[4:1],7/4>1[4:1],
1<6[4:1],6>3[4:1],{16}3,2,1,8,{4}7-2[16:3],
,E6/B6,1q5[16:3],B8/E8,
6<1[16:3],{24}E3,B3,{6}B4,8xp4[16:3],{24},,E3,B2,B1,8xh[8:7],,,{4}5x,
6,7,1h[1:1],
6,7,8,2,
{8}8,7,6,5,1,2,3,4,
{24}D8,A7,D7,A6,,,D2,A2,D3,A3,,,E7,B6,B5,E5,,,E3,B3,B4,E5,,,{4}8b-6-4-2-4-6[2:3],
2,{2}2h[4:1],
{1}1<6[0.4615##0.2308],
{4}3>5<1[2:3],5,{2}5h[4:1],
{1}4>1[0.4615##0.2308],
{8}7,5,6,4,5,3,4,2,
3,1,2,8,1,7,8,6,
7b,5,6,4,5,3,4,2,
3,1,2,8,1,7,8,6,
{16}7b,8,1,2,5,6,7,8,4,3,2,1,8,7,6,5,
1,2,3,4,5,6,7,8,2,3,4,5,6,7,8,1,
{24}7b,6,5,4,3,2,8b,7,6,5,4,3,1b,8,7,6,5,4,3,2,1,8,7,6,
5,4,3,2,1,8,{4}7w3[4:1],,,1b-5[8:1],
1,8/7-5[8:1],7,
1/2-4[8:1],2,6/5-8[8:1],5,
3/4-1[8:1],4,8-5[8:1],1-4[8:1],
7-4[8:1],2-5[8:1],6-1[8:1],3-1-7-2-6-4[4:7],
{1}8-4b[2:3],
{4},,,,2,
4,6,8q6p3[1:1],
,3,2,1,
{2}8h[2:1],{4}7-4[8:1],7/1pp4[2:1],
{2}1,{4}5<4[2:1],5,
{2}4p6[2:1],{4}1,1,
,2-6-4-1[2:1],,7,
{8}8,8,1,1,7,7,2,2,
6,6,3,3,5,5,4,4,
{16}5,4,6,3,7,2,8,1,{2}8<4[0.4615##0.2308],
{16}8/4,3,2,1,8,7,6,5,4/8b,7b/3,6b/2,5b/1,{4}8/4b-7[8:1],
1b,1/4-2[8:1],1,1/5-8[8:1],
1,1/5-3[8:1],1,1/7-5[8:1],
1,1/7-3[8:1],1,1/4-6[8:1],
1,1/7-4[8:1],1,{8}1,2,
{4}3h[8:3],{8}5,6,{4}7/2-5[8:1],7,
7/4-2[8:1],7,7/1-5[8:1],7,
{8}7,6,4,3,6,6,2,2,
7,{16}1,7,1,7,1,7,{2}8b-4[8:1],
{8}5b,{16}5,4,{8}5,5,{16}2,4,{8}2,{16}7,6,{8}7,
{16}1/8,2,{8}3,{16}5,4,{8}5,{16}2,4,{8}2,{16}7,6,{8}5,
{16}8,7,{8}6,{16}1,8,{8}7,{16}2,1,{8}8,{16}3,2,{8}1,
{16}4,3,{8}2,{16}5,4,{8}3,{16}6,5,{8}4,{16}7,6,{8}5,
{16}8b,7,6,5,1,8,7,6,2,1,8,7,3,2,1,8,
5b,6,5,6,5,6,5,6,4,7,4,7,4,7,4,7,
{24}3b,2,1,8,3,2,1,8,3,2,1,8,3,2,1,8,3,2,1,8,3,2,1,8,
2b/1b,3,4,5,6,7,8/4,5,6,7,8,1,2/6,7,8,1,2,3,4/8,1,2,3,4,5,
{1}6b/2bv4-8b[0.4615##6.4615],
,,,,,,,{4}6,
5,4,3,
B6,B5,B4,B3,
7,8,1,2,
B1/E2,{16}A2,E3,B3,B4,{4}E5,C,
8,7,6,5,
B8,B7,B6,B5,
{1}1-7>8-4[0.4615##0.6923],
{4},5-8-5V72v4[0.4615##2.3077],
E
