&title=ULTRA SPHINX
&artist=SOUND HOLIC feat. Nana Takahashi
&first=0
&des=ImagineWind
&des_5=ImagineWind
&lv_5=13+
&inote_5=(160){4},,,,{8},B5,
{2},{8}B2,B8,
{4},B6/E7,B2/E3,B8/E1,
,{8}E2,E3,{4}B4,B6,
E1/B8,B3/B2,{2}B5/E6,
{8}2h[2:1],{4},{8}7,{4}8h[4:1],3,
7,6,5,3h[2:1],
,{8}8,7,2,3,7,6,
4,5,3,7,{2}6/1>5[8:1],
{4}8b,7,7,7,
6/4,3,3,3,
2/5,6,6/4,6,
7/3,2,1w5[8:1],1,
{8}8b,{16}2,1,{8},3/4,2,2,5,5,
6/4,{16}3,5,{8},1,6,6,{16}3,4,{8},1,
{16}6,5,{8},7,8/2,3,8,5b/7b,
{16}4,8,4,8,3,7,{8}3V52[4:1],{2},{1}1x>5qq8[2:3]/7x<5[8:3],
6xqq7[8:3],
{16}3b,5,{8}3,{4}4/6h[8:1],{8}7/5,3h[8:1]/8h[4:1],{4},{16}3,
7,4,6,2,5,1,7,2,6,3,5,{4}4h[8:1],
{16}6,5,{8}6,{4}7/4h[8:1],{8}3/5,1h[4:1]/6h[8:1],{4},{16}5,
2,6,3,7,1,,2/6,,1/5,,5h[16:3],1,2,{8}3,
{16}6x,5x,{8}6x,{4}7/4h[8:1],{8}5/3,1h[4:1]/6h[8:1],{4},{16}6,
2,5,3,7,4,8,2,7,3,6,4,{4}5h[8:1],
{16}3,4,{8}3,{4}2/6h[8:1],{8}3/5,4h[8:1]/7h[4:1],{4},{16}2,
5,4,6,1,7,{8}2h[8:3],{4},8xw4[8:1],
8x,2/6,{8}3,3,5,6/4h[8:3],
,7,{4}8<5[8:1],2h[8:1],3h[8:1],
7h[8:1],2/6,{8}7,7,1,2/8h[2:1],
,3b,,2b,,6b/1b>4[8:1],{4},7,
3/5,2h[8:1],{8}7,8<3[8:3],
{4},3V58[8:3],1h[8:1],{8}2,2h[8:9],
,E1,E8,E7,E6,E5,{4},{8}6h[8:5],
E3,E4,E5,,3,{4}3,
3h[8:1]/4h[8:1],4h[8:1]/5h[8:1],{8}6,6,4,3/5h[8:3],
,2,{4}1>4[8:1],7h[8:1],6h[8:1],
2h[8:1],7/3,{8}2,2,6,1h[8:5],
B8,B7,B6,B5,C,2>5[8:1],{4},8-4[8:1],
3,2h[8:1],{8}5/1,1h[4:1]/5h[8:3],
{2},{8}2,3,6,5,
2-6[8:1],{4},{8}8-4[8:1],{4},3-8[8:1],
{8}6,6,6,6,{16}1,5,1,5,1,5,1,5,
{4}1>5[4:1],5<1[4:1],1>5[4:1],5,
8,{8}7-4[8:1],7,4,3V15[4:1],,7,
{4}8<4[4:1],4>8[4:1],8<4[4:1],4pp7[8:3],
1,{8}2,1-3[8:1],1,5-8[8:1],5,4,
{4}4>8[4:1],8<4[4:1],4>8[4:1],8,
5bx,{8}6,7,8-4[8:1],8,2,1>4qq5[8:5],
,6,7,8h[8:3],{2},{8}3/7,
1b-5b[8:1],,1bw5[8:1],,1b,,7V58[4:1],
,3/7,2,1,2V48[4:1],7-4[8:1],2,7>4[4:1],
,5,6,7h[8:3],,4,3,2>5[8:1],
,2/6,7,8-4-7[4:1],,8/3,2,1h[2:1],
,8,7,6,{4}6V47[4:1],{8}6,3V51[4:1],
,3/6,7,8,7-4-8[4:1],2-5[8:1],7,2<5[4:1],
,4,3,2h[2:1],,6,7,8,
,3/1,8-2[8:1],7-3[8:1],8-4[8:1],7<1[4:1],8,7,
,5x,4,3,6/2,3,5/7,8<4[8:1],
{4},1bV38[4:1],{8}8-4[8:1],7,6>1[4:1],6h[8:3],
{4},{8},5V71[4:1],,2,3,4,
{4}5p1[8:1],{8}6,7-4[8:1],,4b,2b,8b,
{32}7x,E7,B6,B5,{8}E5,{32}1x,E2,B2,B3,{8}E4,6x,2,5,5,
{4}6/4>1[8:1],{8}7,8-4-7[4:1],,4,3,2,
{4}1>5[8:1],{8}6,8b-4[8:1],,3,2,1,
{4}5/2-6[8:1],{8}2/7,8<4[8:1],,8/2,{4}1,
{24}2b,3x,{12}4x,{16},,,{48},{24}8b,7x,6x,{8},1x,5x,{24}6bx/2bx,3x/7x,4xh[24:7]/8xh[12:5],
{4},,,Cf/B6/B5/B4/B3,
{16}2>5[8:1],{8},{16}1,{8},8,{16}7>2[8:1],{8},{16}6,{8},5,
4-7[8:1],4,2<4[4:1],2,{2}8xh[2:1],
{16}1,7,1,7,1,6,1,6,1,5,2,6,3,7,{8}1h[4:1],
,5,2h[8:1],6,3h[8:1],7,4>6[4:1],8,
{2}4bx/7h[2:1],{8}4,3,2,1/5h[4:1],
,1,6h[8:1],2,7h[8:1],3,{4}8,
{8}6xh[4:1],{32}B2,B3,B4,B5,B6,B7,B8,B1,{8}B2,6xh[4:1],{32}E3,E4,E5,E6,E7,E8,E1,E2,{8}E3,
6xh[4:1],{32}2x,3x,4x,5x,,7x,8x,1x,{8}2x,{4}5h[4:1],{8}3,2,
{1}5b/1bpp3<5[4:5]*qq7<5[4:5],
{4},,,{8}6,7,
{1}4bqq5[8:5]/8bV61<4[4:5],
{8},4,3,2,{4}1h[4:1],{8}5,5,
{4}6h[8:1]/2bqq3[2:1],6h[8:1],6h[8:1],6h[8:1],
2h[8:1]/5pp4[2:1],2h[8:1],2h[8:1],2h[8:1],
5b/1b-5[8:1],7b,4b/8b-4[8:1],{8}8bx,1h[8:7],
{4},,,{32}5x,6x,7x,8x,1x,2x,3x,4x,
{4}5bx/1bx,{8}8/3,1/6,2V48[4:1],7-4[8:1],2,7-1-3-5[4:1],
,5x,6x,7xh[8:3],,5,3,6/1-5[8:1],
,1,6,7-4-8[4:1],3,7/2,1,1h[4:1],
,8,7/1,6,{24}2b/8,3,{12}4,,{24}8b/2,7,6,1V38[4:1],{16},,,{48},{8}1/8,
7,6,5V74[4:1],3-8[8:1],5,3<1[4:1],
,1x,2x,3xh[4:1],,4,6,8b/4,
3,2/1,8-2[8:1],7-3[8:1],8-4b[8:1],7<1b[4:1],8,7,
,5x,4x,3x,2b/6b,4b/8b,7b/3b,5b/1b>5[8:1],
,1,{4}7bV51[4:1],{8}3,2,3,8x/4x,
{16}2,6,3,5,4,7,{8}1>4[8:1],,6,7,8,
{16}2,5,3,4,{8}1,{16}7,4,6,5,{8}8,7/4,3,
{32}8bx,7x,6x,5x,{8},{32}2bx,3x,4x,5x,{8},{32}8bx,7x,6x,5x,{8}2V41[4:1],,2/6,
{4}8-4[8:1],{8}8/2,3>8[8:1],,7,6,5V71[16:3],
2,2,3,4V28[16:3],,8,7,6,
{4}5-7[8:1],{8}5/3,4>1[8:1],,4/8,{4}7h[4:1],
{32}1bx,2x,3x,4x,{4},{32}8bx/2x,7x,6x,5x,{8},1x,5x,{32}2bx/6bx,3x/7x,4x/8x,1xh[32:9]/5xh[32:13],
{4},,,Cf/B7/B8/B1/B2/B3/B4/B5/B6,
{1}4xqq5[2:1]/7xV16[2:1],
{16}4,6,4,6,3,7,3,7,{8}1,2/6,3/5,6,
{1}4b/8b,
