&title=Midnight Alleys
&artist=N.M.S.T.
&first=0.205
&des=midnight alleys,with tars
&des_5=
&lv_5=14
&inote_5=(180){4},{8},,,,,,,,,,,,,,8<5[2:1],
,,,,,,1>4[2:1],
,,,,,,,8>6[4:5],
,,,,,,,,,,,,2,
2,,7,
7/1>4[2:1],,,,,,,8<5[2:1],
,,,,,,,1<3[4:5],
,,,,,,,,,,,,7,
7,,3,
{2}3/4-6[8:1],{8}1,1,,8/2-4[8:1],
,,,,7,7,,6/8-2[8:1],
,,,,5,5,,4/6V84[8:3],
,6,{4}3,{8}2h[8:1],,,1,
{4}6/1,1/7h[8:3],{8}5,5,,4/6-4[8:1],
{16},,,,,,,,3,4,{8}3,{16}5pp8[2:1],4,5,4,
{4}5b,{8}2,2,,1,7,2/6,
{16}3,4,{8}3,{4}2/4qq1[2:1],4/5,{8}6,6,
,8h[8:1],1,7h[8:1],{16}2,3,4,5,6,7,8,1,
{4}2h[4:1]/7<4[8:1],7b,{8}3h[8:1],4,{16}6,4,{8}5,
3,5,{4}6/2>5[8:1],{8}2,8,8,{16}5,6,
{8}5h[8:1],6,7h[8:1],6,{16}5,8,4,7,3,6,2,5,
{4}1h[4:3],,,4bpp8[4:3],
,,,2pp6[4:3],
,,,8>6[4:3],
,,,1h[4:1],
3h[4:1],4h[4:1],6h[4:1],5qq1[4:3],
,,,7qq3[4:3],
,,,1<3[4:3],
,,,8h[4:1],
{8}2h[4:1],,,4,5-1[8:1],6,{4}7/5b,
2/8h[8:1],{8}2,7,6/2-5[8:1],5,{4}2,
6/4h[8:1],{8}6,3,2/6-2[8:1],3,{4}6,
3/1h[8:1],{8}3,8,7/3-8[8:1],6,3,{16}7,6,
5,1,2,3,{8}5,6,4,4,7h,7,
5,5,6/4,6/4,3/7,2/8,{16}1b,2,8,3,
7,4,6,5,{24}7,8,1,2,3,4,{4}5w1[8:1],5b,
{8}3/7,3/7qq8[16:5],,7/1,2,,,8,
7/1,{16}2,6,3,6,4,6,{8}5>3[8:1],7,5,6h[8:1],
,5b,{4}4/2-4[8:1],{8}8/2,7h[4:1],{16},,5,4,
3,8/2,7,6,{4}5/1h[8:1],{8}2/6,2pp1[16:5],,2/8,
7,,,1,2/8,{16}7,3,6,3,5,3,
{8}4<6[8:1],2,4,3h[8:1],,4,{4}5/7-5[8:1],
{8}1/7,2h[4:1],{16},,4,5,6,1/7,2,3,{4}4/8b-4[8:1],
{8}8,3h[4:1],,4,5/2,2/5<8[8:1],,5/1,
1,{16}2,3,4,5/8,7,6,{8}5/2,1-5[8:1],6,1,
{4}8-4[8:1],{8}8/3,2-5[8:1],5,2,8,{16}7,6,
5,4/1,2,3,{8}4/7,8-4[8:1],3,8,{4}1-5[8:1],
{8}1/6,7-4[8:1],4,7,1,{16}2,5,3,5,4,5,
{8}3,3-8[8:1],4,3,{4}5-1[8:1],{8}2/5,2,
8,8,1h[8:1],{16}7,1,6,2,5,3,{8}4b,4,
{16}3,5,{8}2,{16}6,5,7,4,{4}8h[8:1],{8}7/3,5/1,
{16}2b,4,3,4,{8}3,{16}6,4,5,4,{8}5,{4}2/6,
{32}3,5,{16}3,6,4,{8}7-1[8:1],5-3[8:1],7,5,,8h[8:1],
{12}2,2,2,4,4,4,6-2[8:1],6,{24}6,,,,,8b<3[4:1],{4},,{16},{48},{16}1,
4,2,5,3,6,4,7,
5b,6,{8}5,{16},,4b,2,{4}4,{16}5b,7,{8}5,
{16},,4b,2qq6[1:1],{4}4q6[1:1],{2}4b/2b,
{4},,,7h[1:1],
{8},5h[8:3],,,,,,,{4}2h[4:3],
4h[4:1],,3,
4,5h[4:3]/3h[2:1],{8},,,,,3,
4,5,{2}4/6h[8:3],
{8},,6,5,6,4,{16}7,3,7,3,
7,3,7,3,{4}7h,1h,3h,
5h,6h[4:1]/4h[4:1],{8},5h[4:1]/3h[4:1],,,{4}2/4,
3/5,4/6,5h[4:1]/7h[4:1],
{8},6h[4:1]/3h[4:1],,,{4}4/2,5/3qq5[2:1],
3b/6h[2:1],{12},,,,,,6,4,6,
4,5,3,6pp4[2:1],,,{2}6/3h[2:1],
{12},,,3,5,4,6,3,7,2qq5[2:1],,,{4}2/6,
6,{6}7h[4:1],{12}5,5h[4:1],,4,
{6}4h[4:1],{12}2,2h[4:1],,,{6}4,{12}4,3,,3,
{6}5,{12}5,4,,4,{6}6,{12}6,5,,5,
7,6,7,5,6,4,5,3,5,2b,4,3,
7,4,6,1,4,3,{2}8bz4[2:1]*z4[2:1],
{4},1-5[8:1],{8}1,6,6,{16}3,5,
1,6,{8}2,{4}7/3h[8:1],{16}8,4,6,5,7-1[8:1],3,5,4,
{4}7,{8}8/2,2,{16}7,3,6,4,8>3[8:1],3,7,5,
{4}8,4h[8:1],5h[8:1]/2h[8:1],6h[8:1]/1h[8:1],
{16}7,8,7,8,{4}7-4[8:1],{8}7,3,3,{16}6,4,
8,3,{8}7,{4}2/6h[8:1],{16}1,5,3,4,2-8[8:1],6,4,5,
{4}2,{8}1/7,7,{16}2,6,3,5,1<5[16:3],6,2,4,
{4}1,{16}4,3,2,1,8/7,6,5,4,{8}1h[16:1],{16}2,5,
3,6,4,7,{8}5b-1[8:1],5,8,8h[8:1],{16},,7,1,
6,2,5,3,{8}4-8[8:1],4,1,1h[8:1],{16},,2,7,
4,6,3,5,{4}2b,{16}3,7,4,5,2-8[8:1],6,3,5,
{4}2,{8}7,7/1,{4}2>4[8:1]/6>4[8:1],6/2,
{16},,3,4,{8}3,1/7,6,8/2,{16}7-1[8:1],3,5,4,
{4}7,{8}2,8/2,3,1/7,{16}2-8[8:1],6,4,5,
{4}2,{16}7b,8,6,1,{8}5,{16}1b,2,3,4,5,6,
7,6/8,1/5,2/4,{4}3h[1:1],,,,8<5[4:3],
,,,1>4[4:3],
,,,6h[2:5],
E
