&title=Guinevere〜白き妖精〜
&artist=ぺのれり
&first=0.06
&des=D respect for ~黒いスワン~
&lv_5=14+
&inote_5=(150){1},
{4}
3h[8:1],3h[8:1],3h[8:1],3h[8:1],
{4}
5h[8:1],5h[8:1],{8}5h[8:1],4,5h[8:1],3,
{4}
6h[8:1],6h[8:1],6h[8:1],6h[8:1],
{4}
6h[8:1],5h[8:1],{8}4h[8:1],5,3h[8:1],6,
{8}
2<7[4:1],,,6,6q3[4:1],,,4,
{8}
4p5[8:3],,,5,6,7,8,1,
{8}
2/5-8[4:1],2,3,4,4-1[4:1],7,6,5,
{8}
5p4[8:3],,4,4>5[16:7],3h[4:1],,,,
{16}
2h[4:1],,,4,4qq5[4:2],,,,,,,5,5p4[16:6],,,,
{16}
,,,6,6h[16:7],,,3,3h[16:3],,,,27,,,,
{4}
1s5[4:6]/8z4[4:6],,,,
{1}
,
(225)
{32}
1b/8b,2`7,3`6,4`5,
{8}
,3,4,3,5,4,4,
{8}
6,4,5,5,3,6,2,7,
{4}
1b-5[8:1]*p4[8:1],1b,
{8}
7,7,5,6,
{8}
4,5,3,3,5,4,6,6,
(220)
{4}
4h[4:1],
{12}
,,
{24}
8,7,
{12}6h[4:1]/2,,,,,{24}2,3,
{4}
4h[4:1]/8,
{12}
,,
{24}
7,6,
{12}5h[4:1]/1,,,,,{24}2,,
{12}
6h[6:1],,8,7qq5[8:3],,,,,1,1>4[16:5],,,
{12}
,,8,8,,7h[12:1]/5,,,4/6h[12:1],,,,
(218)
{12}
2h[4:1]/5,,,,6,4,7h[4:1],,,B6`E6,,,
{8}
3h[4:1],,B4`B5,,6h[4:1],,B2`B3,,
{12}
1-5[4:2],,8h[12:1],,,,,,,6h[4:2],,,
{4}
5,5h[4:1],
{16}
4,3,2,1,8,7,6,5,
(225)
{8}
3/4,,3,2,1<6[8:1]/8,,12,,
{8}
3,4/5,,6,5-1[8:1],,56,,
{8}
7/8,,7,6,5>2[8:1]/4,,56,,
{8}
7,8/1,,2,1-5[8:1],,1<3[8:5]/2,,
{4}
6h[8:3]/1,,1x<6b[8:2],,
{12}
2,3,4,8,7,6,4,3,2,5,6,7,
{12}
1,8,1,7,2,7,3,6,3,5,4,5,
{12}
2,3,4,7,6,5,3,4,5,6,5,4,
{8}
2b-8[8:1]/3,,2,7,6-1[8:1],6,1,2,
{8}
3-5[8:1],5,3,6,7-4[8:1],7,
{16}
8,1,2,,
{16}
3x/5x,,6,,
{8}7-5[8:1],8,7,2-4[8:1],1,2,
{16}
8bp6[8:3],,7,1,8,,3,,,,5,,5,,,,
{8}
7<4[16:3],,8,1,2<7[16:3],,23,,
{8}
4<7[16:3],,8,,
{12}
1-5[8:1],2,3,
{4}
41,
{16}
4b/6h[4:1],3,2,1,8,,8h[4:1]/7,6,5,4,3,,1h[4:1]/2,3,4,5,
{16}
6,,1/4h[4:1],8,7,6,5,,1bw5[8:1],,,,,,,,
{12}
28,,,3,5,1,7h[4:1],,,1,5,3,
{12}
1h[4:1],,,3,7,1,5,4,8,2,6,4,
{12}
8h[4:1],,,1,2,3,4-6[8:1]/6,,,2-4[8:1]/4,,,
{24}
28,7,6,
{8}
,
{12}
3,5,1,6,4,8,2,4,8,
{12}
6h[4:1],,,8-5[8:1],1,2,3/8-3[8:1],,,8,,,
{12}
6h[4:1],,,4,8,2,5,1,7,3,5,,
(222)
{24}
1bq3[4:6]/5bq7[4:6],26,37,
{8}
48,
{4}
,,,
{4}
,,,,
{4}
8-4[4:7],
{12},,1,
{4}
1,,
{24}
1b,2,3,
{8}
,,
{24}
8b,7,6,
{8}
,,8b,,
{8}
1-5[4:7],,5,,4,,6,,
{8}
3,,7,2,8,,1,,
(217)
{4}
7h[4:7],
{12}
,,2,
{4}
2h[4:5],,
{4}
,,,,
{4}
6x<4[4:7],,,,
{4}
,,C,,
{4}
5x<3[8:13],,,,
{4}
,,C,,
(220)
{6}
5h[3:1],3h[6:1],,2h[3:1],7h[6:1],,
{6}
6h[3:1],8h[6:1],,1h[3:1],4h[6:1],,
{24}
2p7[4:4],3,4,,,,
{4},,
{8}
,6,
{4}
6p3b[8:4],,,,
(222)
{24}
1b/7h[8:1],2,3,
{8}
4,,
{16}
6,5,7h[4:1],,,,,,2,1,
{8}
3-1[8:1],
{24}
8,7,6,
{8}
3,5h[8:1],8-4[8:1],1,2>5[8:1],2,
{8}
6bh[4:1],,,
{16}
8,7,1h[4:1],,,,
{16}
,,7,6,
{8}
5-1[8:1],3,2-4[8:1],2,8-6[8:1],8,5,5,
{16}
4bh[8:1],,6,5,6,,7bh[8:1],,1,8,1,,2bh[8:1],,4,3,
{16}
5,,6bh[8:1],,8,7,1,,4bh[8:1],,1,2,8bh[8:1],,,,
(225)
{16}
4b,7,4,7,3,6,3,6,2,5,2,5,{8}
1h[4:1],8,
{12}
8b,7,6,5/1b,4,3,2/6b,1,8,
{4}
3b/7b,
{16}
2h[32:1],8h[32:1],1h[32:1],1h[32:1],1h[32:1],1h[32:1],1h[32:1],1h[32:1],
{4}
1b,
{32}
1,8,7,6,5,4,3,2,
{4}
1xb/8xb,
{24}
1,2,3,7-1[8:1],,,2,3,4,7-5[8:1],,,3-1[8:1],4,5,7,,,
{4}
3xb,6xb-1[8:1]/8,
{24}
2xbw6[8:1]/6,,,
{8}
,2xb,,
{4}
4xb/8xb,
{24}
8,7,6,3-1[8:1],,,7,6,5,3-5[8:1],,,7-1[8:1],6,5,3,,,
{4}
7xb,2xb-6[8:1]/8x-6[8:1],2xb/8xw4[8:1],8xb,
{4}
1xb/7xh[4:1],
{8}
,
{24}
2v5[8:1],,,
{8}
5>7[4:1],2,6h[8:1],,
{24}
5x,4,3,2,1,8,
{4}
7x/3b,
{24}
4x,5,6,7,8,1,
{4}
2x/6b
,
{4}
4/7-4[8:1],7/3-7[8:1],8-3[8:1]/3,28,
{4}
1>4[8:1]/4x,1b<6[8:1]/6,5w1[8:1]/1b,5xb,
{16}
3/7,4,5,6,7/4-8[8:1],8,1,2,
{4}
3-7[8:1]/4,
{24}
7b>5[16:5],6,5,,,,
{16}
5x,,,,6,7,8,1,6,7,8,1,
{4}
2xb/6xb,
{16}
73,6,5,4,3/7<4[16:3],2,1,8,4-8-6[16:5],,,,8xb,1,2,3,
{16}
4h[4:1],,,,5x,6,7,8,2x/1x,3,4,5,1x,8,7,6,
{4}
5xb/2xbh[4:1],
{16}
4h[4:1],,,,8,1,2,35,6,7,81,2,
{4}
3qq6[4:2],5h[8:1],6<3[8:3],B4/E5/B5,
{4}
5x-8[8:1],
{16}
5b-2[8:1]/C,,,,5b/C,,,,8/C,7,6,5,
{16}
2b/4b,,1,5,1,6,1,6,1,7,1,7,1,8,1,8,
(223)
{4}
1b>8[4:14],,,,
{4}
,,,,
{4}
,,,,
{4}
3b,,5b,,
(221)
{4}
4x>5[4:14],,,,
{4}
,,,,
(220)
{4}
B2`B3,,B7`B6,,
{4}
,,Ch[8:5],,
(215)
{4}
8-4[4:6],,,,
{4}
,,,,
(218)
{8}
3,4,3,4,3,5,4,4,
{8}
6,5,6,5,6,4,5,5,
{8}
4,5,4,5,4,5,3,3,
{8}
5,4,5,4,5,4,6,6,
{8}
3,5,4,6,3,5,4,6,
{8}
2h[8:3],4,5,6,3h[8:3],4,5,6,
{4}
2h[8:3],
{16}
,,7,6,5h[8:3]/1,,,,,,2,3,
{4}
4/7-4[8:1],1-5[8:1]/7b,8-4[8:1]/1b,8b/4,
(220)
{8}
26,8,46,2,35,7,46,1,
{8}
37,5,16,4,28,6,17,4,
{8}
36,8,47,2,45,7,56,2,
{8}
17,28,34,51,87,46,
{12}
2b,8b,4b,
(215)
{4}
6b<3[4:6],,3h[4:1],,
{4}
5h[4:1],,7h[4:1],,
{4}
5b<4[4:7]/Cf,,4h[4:1],,
{4}
6h[4:1],,8h[4:1],,
(213){4}1h[4:1],
(210){12},,8,
(208){4}7h[4:1]/1,
(205){4}4h[4:1],
(203){4}6h[4:1],
(198){4}2h[4:1],
(190){4}5,
(160){8}34,
(150){8},
(205)
{10}
2,3,4,5,6,3,4,5,6,7,
{10}
2,3,4,5,6,3,4,5,6,7,
{15}
2,3,4,5,6,3,4,5,6,7,2,3,4,5,6,
{20}
3,4,5,6,7,2,3,4,5,6,3,4,5,6,7,2,3,4,5,6,
{4}
7xb,
{12}
1-5[8:1]/2,2,2,1b,,,8-4[8:1]/7,7,7,
{12}
8b,,,36,36,36,2,4,1,7,5,8h[12:1],
{32}1b,2b/7b,3b/6b,4b/5b,
