&title=Logos
&artist=polysha;高城みよ
&first=0
&des_1=ΩωΩ
&des_2=ΩωΩ
&des_3=ΩωΩ
&des_4=ΩωΩ
&des_5=ΩωΩ
&lv_5=13+
&des_6=ΩωΩ
&des_7=ΩωΩ
&des=ΩωΩ
&inote_5=||s3/4
(189){2},,,
{4}3h[4:3],4h[4:1],,6h[4:3],5h[4:1],,3h[4:3],4h[4:1],,
{8}5,6,,3,4,6,
{4}5h[4:3],6h[4:1],,4h[4:3],3h[4:1],,5h[4:3],6h[4:1],,4b,
{8},8b,,,3h[2:1]/7,,6,5,4>1[4:1],,4/5,6,,7,7/8,,6h[2:1]/2,,3,4,5<8[4:1],,5/4,3,,2,2/1,,3h[2:1]/7,,6,,5,4,2/6h[2:1],,3,,4,5,3/6,
{16}3,4,2,,1/8,,7,5,6,,4,5,4,5,3/6,,2,1,2,,7,8,7,,6,,4/5,,3,,6,4,5,3,6,4,5,3,2/7,,8,1,8,,2/7,,
{8}3h[4:3],,4,,,,4h[4:3],,5,,,5,5h[4:3],,6,,7,,8h[4:3],,,,,5,5>8[4:3],,5/7h[4:3],,,,,,,,,6,6-1[4:1],,4h[4:1]/6,,,3,3-8[4:1],,3/5h[4:1],,,,6h[4:3],,5,,,,5h[4:3],,4,,,4,4h[4:3],,3,,2,,1h[2:1],,,,4>1[8:3],5,6h[2:1],,,,8<5[8:3],,2h[2:1]/8,,,,4,,3/4,2h[4:1]/5,,6,,6/5,
{24}4/7b,8,1,2,3,4,5,6,7,2b,1,8,7,6,5,4,3,2,
{16}1/8,,7,,5/6,,3,4,2,6,5,7,4,,8,,2,1,3,,
{8}4/5-2[8:1],6,5/7-4[8:1],,1-5[8:1]/7,,1/6,7,8/2,4,7h[8:1]/1h[8:1],,7/1,6,5/4,
{16}3,4,2,,1/8,,7,5,6,5,7,,4/8,,2,1,3,,4/5,,6,5,7,4,8,,1/2,,3,4,2,6,5,7,1w5[8:1],,,,,,,,3/7,,2,,1h[4:1]/8,,2,3,4,5,6,7,8/2-6[8:1],,1,,2/8h[4:1],,,,5,4,3,2,1/8,7,6,5,
{8}4<7[8:1]/3,,2/4,1>4[8:1],,1/7,6h[4:1],,5h[4:1],,4h[4:1],,3,3,2,2,1p8[8:3],8,7h[2:1],,,,1,2,3/4,
{16}3,5,1b,,5/6,,6,4,8b,,2,1,2,1,4,5,4,5,8,7,8,7,
{8}1h[4:3],,,8,8,,7h[4:3],,,6,6,,5<4[1:1],,,,,,,,,,6,7,8h[2:1],,3,3,,2,2h[2:1],,7,,6,,5<1[2:1],,1,2,3,4,5h[4:3],,,,,,1b,,8,8,,7,7h[4:3],,6,,5,5,5h[4:3],,,,3,3,3h[4:3],,,2,,,1h[2:1],,,,
{16}7,8,7,8,6h[2:1],,,,,,,,5,,4,,3b,4,3,4,2h[8:1],,6b,5,6,5,7h[8:1],,2b,1,2,1,3h[8:1],,7b,8,7,8,6h[8:1],,
{8}5-1[4:1],,,,,,7<5[8:1],8,7,1>3[8:1],8,1,6<8[8:1],5,6,4>2[8:1],5,4,8<6[8:1],1,8,2>4[8:1],1,2,7-4[8:1],5,7,3-8[8:1],5,3,6-3[8:1],1,6,2-5[8:1],4,2,
{16}6,7,8,1,4,3,2,1,8-4[8:1]/7,6,5,4,
{8}8b,,6,,7,,1h[4:1]/8h[4:1],,,1/8,1b-5[8:1],1,1/6,6-2[8:1],6,6/3,3-8[8:1],3,3/7,7-4[8:1],7,7/2,2-6[8:1],2,2/8,,7,2,7,2,1h[4:1]/8h[4:1],,,1/8,8-4[8:1],8,8/3,3-7[8:1],3,3/6,6-1[8:1],6,6/2,2-5[8:1],2,2/7,7-3[8:1],7,7/1,,4,4,5,5,
{4}6<1[4:1],1>4[4:1],4<7[4:1],7>2[4:1],2>5[4:1],5<8[4:1],8>6[2:1],,,1,2,
{16}3,4,2,4,1p4[4:1],,,,,,,,6,5,7,5,8q5[4:1],,,,,,,,3,4,2,4,1,,
{24}7,8,7,8,,,2,1,2,
{8}1-5[8:1],,1/6-1[8:1],,3-6[8:1]/6,,3/8-4[8:1],,
{2}1b>8[1:1]/8b,,,
{16}1,8,1,8,2,7,2,7,3,6,3,6,
{24}4,3,2,1,8,7,6,5,4,
{8}3/8,7,6,5b/4h[8:3],,5,6<1[8:1],5,4,3<6[8:1],2,1,8>3[8:1],7,6,5<8[8:1],4,3,2>5[8:1],1,8,7>2[8:1],6,5,4,4,3,3h[4:1],4,6h[4:1],5,2h[4:1],4,7h[4:1],5,1h[4:1],3,8h[4:1],6,1-4[8:1],,1/5,5-8[8:1],,5/1,
{16}1,2,3,4,1,8,7,6,4/5,3,2,1,7/8,,7/8,,7/8,6,5,4,1,2,3,4,5/6,7,8,1,5,4,3,2,1/8,7,6,5,1b,,,,1,8,1,8,1,8,1,8,2,7,1,8,2,7,1,8,
{4}2/7,4b/5b-8[2:1],3,2,1-4[2:1],7,6,5-8[2:1],3,2,
{8}1,1,8,2,7,3,
{4}6-3[2:1],8,1,2-7[2:1],4,5,
{8}6,5,4,3,2,1,
{16}7,8,7,8,6,,2,1,2,1,3,,
{8}4b/5h[4:1],,1,,2,,3`4,5,6,2,3,4,
{12}6,4,5,3,5,4,7,5,6,2,4,3,6,5,7,3,4,2,
{4}1b/8h[2:1],2,3,4h[2:1]/5b,6,7,1/8,2/7,3/6,4/5bp3[2:1],4,3>5[1:1],
{2}2h[2:3],,,
{16}8,1,8,1,7,2,7,2,6>3[8:1],3,6,3,
{8}6b,,2,7,2,7,1b-6[8:1]/8b,2,3,4-7[8:1],3,2,1<6[8:1],2,3,4<7[8:1],3,2,1v6[8:1],2,3,4v7[8:1],3,2,1bw5[8:1],,1b,,3/7,2,1<5[4:1]/8,,5>1[4:1],,1<5[4:1],,5>1[4:1],,1<5[4:1],,5>1[4:1],,
{16}1,8,7,6,5<1[4:1],4,3,2,1>5[4:1],,,,5,6,7,8,1-5[8:1],2,3,4,
{8}5b/1b,,3/6,2/7,
{4}1>7[4:9]/8<2[4:9],,,,,,,,,,
{16},,1h[16:1]/8h[16:1],,
E
