&title=snooze
&artist=wotaku feat.SHIKI
&first=0.5
&des_6=ホシノちゃん respect for シチミヘルツ
&lv_6=13+
&des=ホシノちゃん respect for シチミヘルツ
&inote_6=(150)
{4}4/5<4[2:3],,,,,,,,8<1[2:3],,,,,,,,
{4}2-4[8:1]/5,2/1,7-5[8:1]/4,7/8,2-5[8:1]/4,2/1,7-4[8:1]/5,7/8,
{8}2,1/2,3/4,5/6,
{16}7,8,7,8,
{24}7-3[8:1],6,5,1,2,3,Ch[16:1],,,,,,,,,,,,,,,,,,,,,,,,
{16}2h[16:3],,,4h[16:3],,,3h[8:1],,B5,,B1/A1,,A7/B7,,B3/A3,,
{16}5x-2[8:1]/6x,,,7,5/7<4[8:1],,8,,1-5[8:1]/7,,2,,1/8,,7,,
{16}4-7[8:1]/3,,,2,4/2>5[8:1],,1,,8-4[8:1]/2,,7,,8/1,,2,,
{16}5-2[8:1]/6,,,7,5/7<4[8:1],,8,,1-5[8:1]/7,,2,,1/8,,7,,
{16}4-7[8:1]/3,,,2,4/2,,1,,D2,D3,D4,D5,8b,7,6,5,
{16}2-5[8:1]/4,,,8,2/8-4[8:1],,7,,8/3<6[8:1],,2,,3/7,,8,,
{16}7-4[8:1]/5,,,1,7/1-5[8:1],,2,,1/6>3[8:1],,7,,6/2,,1,,
{16}2-5[8:1]/4,,,8,2/8-4[8:1],,7,,8/3<6[8:1],,2,,3/7,,8,,
{16}7/5,,,1,7/1,,6/3,,7-2b[8:1]/4h[16:1],,,,7b/A3f/D3/D4,,,,
{16}4/8,,3,7,2,8,1,1,1,1,1,1,1,1,1,1,
{32}2,3,4,,1,,1,,8,7,6,,1,,1,,2,3,4,,8,7,6,,2h[8:1],,,,,,,,
{16}2-5[8:1]/4,,,8,2/8-4[8:1],,7,,8/3<6[8:1],,2,,3/7,,8,,
{16}7/5,,,1,7/1-5[8:1],,5w1[8:1]/3,,1,,,,,,,,
{32}2,3,4,,6,,6,,1,2,3,,5,,5,,8,1,2,,4,,4,,
{24}7,8,1,2,3,4,5b-2[8:1]/8b-5[8:1],,,,,,,,,,,,
{8},1/5h[4:1],1h[8:1],,
{8}2-4[8:1],4V26[4:1],2,,8V62[4:1],,8,5>7[8:3],,5,6h[8:1],,5-2[8:1]*-8[8:1],5,,,
{16}1b,1b,1b,1b,1b,1b,1b,1b,1b,1b,1b,1b,1b-5b[8:1],1b,1b,1b,1b-3[8:1]*-7[8:1],,,,
{8},,,5V71[4:1],5,,
{8}2,3,4>1[8:1],5,6,7<4[8:1],8,1h[8:1],,2,2<8[8:1]/6<8[8:1],,2v4[8:1]/6v4[8:1],,,,
{8}3qq8[8:5],,,,7-4[8:1],,7,,1b>4[8:1]/5b<8[8:1],,,,
{16}4>1[8:1],,,,6,,5,5,
{16}2-5[8:1],,5V38[4:1],5,2,7,7-3[8:1],,6,,7,,,,1,2,
{16}7-4[8:1]/3,,4V61[4:1],4,7,2,2-6[8:1],,3,,2,,,,,,
{16},,2b,1b,2b,,7b,8b,7b,,5b/6b,5b/6b,,3b/4b,3b/4b,,
{8}1bs5[8:3]/5b,,,7,7-3[8:1],,
{16}7,,2,2,
{16}5-7[8:1],,3,3,5-2[8:1],2,2-7[8:1],,5,,,,,,2,3,
{16}4-2[8:1],,6,6,4-7[8:1],7,7-2[8:1],,4,,,,5xw1[8:1],,5x,,
{8}Cf,,,,,,
{16}2h[4:1],,,,6h[8:3],,,,,,4h[8:3],,,,,,Ch[4:1],,,,3h[8:3],,,,,,7h[8:3],,,,,,5h[4:1],,,,Ch[1:1],,,,,,,,,,,,,,,,
{16},,1,,3,4,2h[8:1],,6h[8:1],,4,7,3,,2h[8:1]/8h[16:1],,
{16},,8,,6,5,7h[8:1],,3h[8:1],,5,2,6,,1h[16:1]/7h[8:1],,
{16},,1,,3,4,2h[8:1],,6h[8:1],,4,7,3>5[2:1],,2h[16:1]/8h[16:1],,,,,,,,,,,,,,E5,,,,
{16}3b>8[8:1]/6b,,,,,,6,6,5/7,,3,2/4,,1/8,2V46[4:1]/7,,,,5x,,7x-3[8:1],,1x,,7,,,,5q8[8:3]*p2[8:3],,,,5,,,,,,,,
{16}1b,,6,5/7,,3,2/4,,5-7[8:1],,2-6[8:1],,5,,2-8[8:1],,8bV24[4:1]*V26[4:1],,2,,,,,,
{16}A6/D6/A5/D5/A4,,,,8b,,,,E2,E1,E8,E7,E6,E5,8-4[8:1],,,,3/8,3,,2,,1/5,1>4[8:1]/5,,,6,1/6,,7,,
{16}8V62[8:3]/5-3[8:1],,,8/5,,,,,E5,,,,3bs7[4:1],,,,6,,5x,,5x<8[8:1]*>2[8:1],,,,5xw1[8:1],,,,5bx,,,,
{16}3-5[8:1]/7,,6,6,3-1[16:1],,8,8-4[16:1],3x,,5-7[16:1],8x,,,5x,,,,4/3h[4:1],,2,,1,,
{12}8<5[8:1],,8,3,3,3,
{8}2-6[8:1],4,6-2[8:1],8,3,
{16}4h[32:1],4h[32:1],5,,6,,7<4[8:1],8,,8,7-1[8:1],,1-5[8:1],,7,,,,,4h[32:1],3h[32:1],2h[32:1],
{16}6h[8:1],,2,2,6,6,4,4,7h[8:3],,8,8,,,2h[8:3],,1,1,,,6h[8:3],,5,5,,,3h[8:3],,4,4,,,
{8}7x,7x/8x,7x/6x,6x/5x,5x/4x,4x/3x,3x/2x,1x/2x,
{16}3,3,8,8,4,4,7,7,
{32}5,6,7,8,1,2,3,4,5,6,7,8,1,2,3,4,
{4}1-5[8:1]/5-2[8:1],
{32}1b/5b/B3/B7,Cf,,,,,,,
{16}1<6[8:1],,,2,1,,4V25[4:1],,,,5V38[4:1],,7-4[8:1],,,,7,,,1x/5x,,,2/6,,
{16}3-5[8:1],,2,,3/6-2[8:1],,7,,6/8V64[8:1],,1v3[8:1],,8,,1,,,,2-4[8:1],,4v1-3[4:1],,5/2,,6,,7h[4:1],,,,,,
{16}8s4[8:1]*z4[8:1],,,,8,,,,8>3[8:1],,,7,8,,5V74[4:1],,,,4V61[4:1],,2-5[8:1],,,,2,,,8x/4x,,,7/3,,
{16}6-4[8:1],,7,,6/3-7[8:1],,2,,3/1V35[8:1],,8v6[8:1],,1,,8,,,,7-5[8:1],,5v8-6[4:1],,4/7,,3,,2h[4:1],,,,,,
{8},2b/6b,3b/7b,2b/6b,3b-8b[8:1]/7b-4b[8:1],,3b/7b,,
{16}1bx>4[8:1]/5bx<8[8:1],,,,1w5[8:1]/5,,,,1x,,,,3/7,,2,2,
{16}8-3[8:1],,3>8[8:1],3,8<5[8:1],4h[8:1],,,4-7[8:1]*-1[8:1],,4,,,,,,
{16}1-6[8:1],,6<1[8:1],6,1>4[8:1],5h[8:1],,,5-2[8:1]*-8[8:1],,5,,,,,,
{16},,4b/6b,4b/6b,4b/6b,,3b/5b,3b/5b,3b/5b,,4b/7b,4b/7b,,2b/5b,2b/5b,,
{16}7b/8bw4[8:1],,,,8x,,,,2-5[8:1]/6,,,,2/7,,8,,
{16}1-6[8:1],,4-1[8:1],4,1V35[4:1],,4,,7-3[8:1],,8,,7,,2,1,
{16}8-3[8:1],,5-8[8:1],5,8V64[4:1],,5,,2-6[8:1],,1>8b[8:5],,2,,1bx,,,,,,,,,,,,,,3x<7[4:1]/7xv4[8:1],,,,
{4}3b/7b>3[4:1]/Cf,5-8[8:1],5xqq1[8:7],7b,,6-8[8:1],6x,6x>2[4:1]/2xv5[8:1],
{4}6b/2b<6[4:1],4-1[8:1],4xpp8[8:7],2b,,3-1[8:1],3x,3xV57[4:1]/7xv4[8:1],
{4}3b/7bV13[4:1]/Cf,5-8[8:1],5>7[8:7],2b,,4-1[8:1],4x,6xV42[4:1]/2xv5[8:1],
{4}6b/2bV86[4:1],4-1[8:1],4<2[8:7],7b,,5-8[8:1],5x,3x-8[8:1]/7x-4b[8:1],
{12}3b/7b/Cf,,,1,2,3,5,6,7,4>1[8:1]/8<5b[8:1],4/8,,,,,5,6,7,1,2,3,4/8,4/8h[6:1],,
{16}3,4,3,4,2,5,2,5,4,6,4,6,3,7,3,7,1,8,3,4,1,8,5,6,4,6,3,5,6-1[8:1]/2-5b[8:1],2/6,,,
{12}6b/2b/Cf,,,8,7,6,4,3,2,5<8[8:1]/1>4b[8:1],5/1,,,,,4,3,2,8,7,6,5/1,5/1h[6:1],,
{16}6,5,6,5,7,4,7,4,5,3,5,3,6,2,6,2,8,1,6,5,8,1,4,3,5,3,6,4,3-8[8:1]/7-4b[8:1],,2/6,,3b/7b,,,,
E
