&title=知らないLove*教えてLove
&artist=lily white
&first=0
&des=luvlily
&lv_5=12+
&inote_4=(143)
{1},
{8}1h[4:3]/8h[4:3],,,,,,,12,
{8}1h[8:7]/2h[8:7],,,,,,,,
{8}7h[1:1]/8h[1:1],,,,,,,,
{8},,,,,,,,
{8}78,6,2,8,1,8,3,12,
{8}12,4,8,3,6,5,8,1,
{8}1p5[8:1]/8,,4,4p8[8:1],,5v2[8:1],,7qq2[8:11]*qq4[8:11],
{8},,,,,,,,
{8},,,,,,3,,
{8}18,8h[4:1],,7h[4:1],,6h[4:1],,5-1[8:1],
{8},4h[4:1],,2h[4:1],,3h[4:1],,4-8[8:1],
{8},1h[4:1],,7h[4:1],,6-1[8:1],5,6,
{8},3>8[8:1],4,3,,7,8,7,
{8}45,3h[4:1],,2h[4:1],,8h[4:1],,1-5[8:1],
{8},6h[4:1],,7h[4:1],,1h[4:1],,8-4[8:1],
{8},2h[4:1],,3h[4:1],,5h[4:1],,4-8[8:1],
{8},7-3[8:1],,4-8[8:1],,1-5[8:1],,8b,
{8},4,3-7[8:1],4,3,4,8-5[8:1],4,
{8}8,4,6-2[8:1],4,6,4,1<6[8:1],4,1,
{8}4,8>3[8:1],4,8,4q2[4:1]*<2[4:1],,4,
{8},,,
{16}8,8,
{8}8,7,18,,
{8}37,48,,26,15,,37,4-8[8:1]/8-4[8:1],
{8},,,1,27,6,45,,
{8}26,15,,15,48,,48,3<1[2:1]/7>5[2:1],
{8},,,,,,,5,
{8},1,7-3[8:1],1,7,1,2-6[8:1],8,
{8}2,8,5-1[8:1],3,5,3,2-6[8:1],4,2,
{8}4,7-3[8:1],5,7,5p6[4:1]*>6[4:1],,5,
{8},,,
{16}4,4,
{8}4,3,45,,
{8}73,84,,62,51,,73,8-4[8:1]/4-8[8:1],
{8},,,{16}1,1,
{8}1,7,36,,
{8}62,51,,51,84,,84,7q5[4:1]/3q1[4:1],
{8},,,,3b,,2b,,
{8}1b/8b,,7<4[8:1]/8,6,78,,3>8[8:1]/4,2,
{16}34,,,6,6,,7,,56,,,2,1,,,,
{16}18,,,6,5,,3,,34,,,,18,,,,
{16}67,,,5,4,,2,,18,,7,,18,,3,,
{8}5/4V68[4:1]*V28[4:1],,,,,12,12,12,
{8}1V75[4:1]/2V46[4:1],,,,,73,28,73,
{8}1b-7[8:1]*-3[8:1],7b/3b,,,5b<7[8:1]*>3[8:1],3b/7b,,,
{8}1s5[4:1],,,8b,,8,8,5<3[8:3]/8,
{8},8,3qq5[8:3],5,7,,,6>8[8:3],
{8},3,8qq2[8:3],7,4,,,3q8[4:1],
{8},8,1q6[4:1],2,6<2[4:1],,2-4[8:1],5-8[8:1],
{8},5>2[8:1],1<1[8:3],5,1,,,,
{8}7-4[8:1]/8,2,7,1,1<6[8:1],4,1,5,
{8}5<8[8:1]/8,1,2,4V68[16:3]*q1[16:3],,4,,,
{8},
{16}3,3,3,,
{8}7,18,3-8[8:1]/7-4[8:1],2,3<6[8:1]/7>2[8:1],
{8},3V51[16:3]/7V15[16:3],,37,,,,2<4[8:3]/4,
{8},7,4qq6[8:3],1,7,,,2<4[8:3],
{8},6,4qq6[8:3],2,8,,,7v4[16:3],
{8},4,5v2[16:3],6,2<8[8:1],8<6[8:1],6>4[8:1],2-6[8:1],
{8},2<7[8:1],5<5[8:3],2,5,,,,
{8},
{16}7,7,7,,
{8}3,5/6<1[8:1],1v6[8:1],,5-8[8:1],
{8}2,1-4[8:1]*>4[8:1],,1qq7[8:1]*q6[8:1],,1,,,
{8}3-7[8:1]/7,8,3/8>2[8:1],
{8}2>4[8:1],4<6[8:1],6<8[8:1],8,2b,
{8}4b-8[8:1],7,7<5[8:1],
{8}5>3[8:1],3>1[8:1],1<7[8:1],7,5,
{8}3-8[8:1],,6-1[8:1],6,,4qq4[4:3]*pp4[4:3],,4,
{8},,,,,,,
{16}1,8,
{8}2h[2:1]/7h[2:1],,,,,3-7[8:1],,4-8[8:1],
{8},1,2,4qq6[8:3],,,,,
{8},8h[4:1],,,
{16}2,1,2,6,8,7,1,5,3,5,4,8,1,8,2,6,4,7,4,5,1,,
{8},
{8}18,7q5[16:3],5,6-2[8:1],,1p3[16:3],3,2-6[8:1],
{8},,,45,
{16}45,,,7h[16:3],,,8h[8:1],,
{16}1b,,,8h[16:3],,,7h[8:1],,6V42[4:1]*V82[4:1],,,,,,,,
{8},
{16}1,3,6,4,5,3,4b/5b,,,3b/6b,,,1b>3[8:1]/8b<6[8:1],,
{8},,,5-8[4:1]*-3[4:1],,,,,
{8},,,1v4[4:1]/7v4[4:1],,,,,
{8},,,7V51[8:3]/2V48[8:3],,,,,
{8},,,3V58[8:3]/7-2[8:3],,,,,
{8},,,,,
{16}7,8,7,,2,,
{8}45,7-3[8:1],,3,2,1>4[8:1],8,1<6[8:1],
{8},1,,,6-1[8:1]/5,3,6,3,2,7-5[8:1]/8-5[8:1],1,7q4[8:1]/8>3[8:1],
{8},7<7[4:1]/8p7[4:1],,78,
{8},,,6>8[8:3]/8,
{8},3,8qq2[8:3],5,3,,,6>8[8:3],
{8},2,8qq2[8:3],6,4,,,3v8[16:3],
{8},8,1v6[16:3],2,6>4[8:1],4>2[8:1],2<8[8:1],6-2[8:1],
{8},6>3[8:1],1>1[8:3],6,1,,,,
{8},
{16}3,3,3,,
{8}7,1/2>5[8:1],5v2[8:1],,1-4[8:1],
{8}6,5-8[8:1]*<8[8:1],,5>2[8:1]*p1[8:1],,5,,,
{8}1/7-3[8:1],45,7/2<8[8:1],
{8}8<6[8:1],6>4[8:1],4>2[8:1],2,8b,7b-3[8:1],4,4<6[8:1],
{8}6<8[8:1],8>2[8:1],2>4[8:1],4,6,7-3[8:1],,6-1[8:1],6,,4qq4[4:3]*pp4[4:3],,4,
{8},,,,,,,5<3[8:3]/8,
{8},8,3qq5[8:13],5,7,,5h[8:1],,
{8}6h[8:1],,7h[8:1],,8h[8:1],,7h[8:1],,
{8}6h[8:1],,7h[8:1],,7h[8:1]/8h[8:1],,1h[8:1]/8,6>8[8:3],
{8},3,8qq2[8:11],7,4,,2h[8:1],,
{8}3h[8:1],,4h[8:1],,5h[8:1],,4h[8:1],,
{16}8b,3,
{16}6,3,8,4,8,3,1,2,8,3,7,4,6,5,
{16}6b,3,7,3,5,4,7,8,7,1,5,3,8,,2b/1b,,
{8},,,,,,,8bw4[1:2],
{8},,,,,,,,
{8},,,,,,,,
{8},,,,,,,,E
&inote_5=(143)
{1},
{8}4h[4:3]/3h[4:3],,,,,,,12,
{8}1h[8:7]/2h[8:7],,,,,,,,
{8}5h[1:1]/6h[1:1],,,,,,,,
{8},,,,,,,,
{8}78,6,2,8,1,8,3,12,
{8}12,4,8,3,6,5,8,1,
{8}1p5[8:1]/8,,4,4p8[8:1],,5v2[8:1],,7qq2[8:11]*qq4[8:11],
{8},,,,,,,,
{8},,,,,,3,,
{8}18,8h[4:1],,7h[4:1],,6h[4:1],,5-1[8:1],
{8},4h[4:1],,2h[4:1],,3h[4:1],,4-8[8:1],
{8},1h[4:1],,7h[4:1],,6-1[8:1],5,6,
{8},3>8[8:1],4,3,,7,8,7,
{8}45,3h[4:1],,2h[4:1],,8h[4:1],,1-5[8:1],
{8},6h[4:1],,7h[4:1],,1h[4:1],,8-4[8:1],
{8},2h[4:1],,3h[4:1],,5h[4:1],,4-8[8:1],
{8},7-3[8:1],,4-8[8:1],,1-5[8:1],,8b,
{8},4,3-7[8:1],4,3,4,8-5[8:1],4,
{8}8,4,6-2[8:1],4,6,4,1<6[8:1],4,1,
{8}4,8>3[8:1],4,8,4q2[4:1]*<2[4:1],,4,
{8},,,
{16}8,8,
{8}8,7,18,,
{8}37,48,,26,15,,37,4-8[8:1]/8-4[8:1],
{8},,,1,27,6,45,,
{8}26,15,,15,48,,48,3<1[2:1]/7>5[2:1],
{8},,,,,,,5,
{8},1,7-3[8:1],1,7,1,2-6[8:1],8,
{8}2,8,5-1[8:1],3,5,3,2-6[8:1],4,2,
{8}4,7-3[8:1],5,7,5p6[4:1]*>6[4:1],,5,
{8},,,
{16}4,4,
{8}4,3,45,,
{8}73,84,,62,51,,73,8-4[8:1]/4-8[8:1],
{8},,,{16}1,1,
{8}1,7,36,,
{8}62,51,,51,84,,84,7q5[4:1]/3q1[4:1],
{8},,,,3b,,2b,,
{8}1b/8b,,7<4[8:1]/8,6,78,,3>8[8:1]/4,2,
{16}34,,,6,6,,7,,56,,,2,1,,,,
{16}18,,,6,5,,3,,34,,,,18,,,,
{16}67,,,5,4,,2,,18,,7,,18,,3,,
{8}5/4V68[4:1]*V28[4:1],,,,,12,12,12,
{8}1V75[4:1]/2V46[4:1],,,,,73,28,73,
{8}1b-7[8:1]*-3[8:1],7b/3b,,,5b<7[8:1]*>3[8:1],3b/7b,,,
{8}1s5[4:1],,,8b,,8,8,5<3[8:3]/8,
{8},8,3qq5[8:3],5,7,,,6>8[8:3],
{8},3,8qq2[8:3],7,4,,,3q8[4:1],
{8},8,1q6[4:1],2,6<2[4:1],,2-4[8:1],5-8[8:1],
{8},5>2[8:1],1<1[8:3],5,1,,,,
{8}7-4[8:1]/8,2,7,1,1<6[8:1],4,1,5,
{8}5<8[8:1]/8,1,2,4V68[16:3]*q1[16:3],,4,,,
{8},
{16}3,3,3,,
{8}7,18,3-8[8:1]/7-4[8:1],2,3<6[8:1]/7>2[8:1],
{8},3V51[16:3]/7V15[16:3],,37,,,,2<4[8:3]/4,
{8},7,4qq6[8:3],1,7,,,2<4[8:3],
{8},6,4qq6[8:3],2,8,,,7v4[16:3],
{8},4,5v2[16:3],6,2<8[8:1],8<6[8:1],6>4[8:1],2-6[8:1],
{8},2<7[8:1],5<5[8:3],2,5,,,,
{8},
{16}7,7,7,,
{8}3,5/6<1[8:1],1v6[8:1],,5-8[8:1],
{8}2,1-4[8:1]*>4[8:1],,1qq7[8:1]*q6[8:1],,1,,,
{8}3-7[8:1]/7,8,3/8>2[8:1],
{8}2>4[8:1],4<6[8:1],6<8[8:1],8,2b,
{8}4b-8[8:1],7,7<5[8:1],
{8}5>3[8:1],3>1[8:1],1<7[8:1],7,5,
{8}3-8[8:1],,6-1[8:1],6,,4qq4[4:3]*pp4[4:3],,4,
{8},,,,,,,
{16}1,8,
{8}2h[2:1]/7h[2:1],,,,,3-7[8:1],,4-8[8:1],
{8},1,2,4qq6[8:3],,,,,
{8},8h[4:1],,,
{16}2,1,2,6,8,7,1,5,3,5,4,8,1,8,2,6,4,7,4,5,1,,
{8},
{8}18,7q5[16:3],5,6-2[8:1],,1p3[16:3],3,2-6[8:1],
{8},,,45,
{16}45,,,7h[16:3],,,8h[8:1],,
{16}1b,,,8h[16:3],,,7h[8:1],,6V42[4:1]*V82[4:1],,,,,,,,
{8},
{16}1,3,6,4,5,3,4b/5b,,,3b/6b,,,1b>3[8:1]/8b<6[8:1],,
{8},,,5-8[4:1]*-3[4:1],,,,,
{8},,,1v4[4:1]/7v4[4:1],,,,,
{8},,,7V51[8:3]/2V48[8:3],,,,,
{8},,,3V58[8:3]/7-2[8:3],,,,,
{8},,,,,
{16}7,8,7,,2,,
{8}45,7-3[8:1],,3,2,1>4[8:1],8,1<6[8:1],
{8},1,,,6-1[8:1]/5,3,6,3,2,7-5[8:1]/8-5[8:1],1,7q4[8:1]/8>3[8:1],
{8},7<7[4:1]/8p7[4:1],,78,
{8},,,6>8[8:3]/8,
{8},3,8qq2[8:3],5,3,,,6>8[8:3],
{8},2,8qq2[8:3],6,4,,,3v8[16:3],
{8},8,1v6[16:3],2,6>4[8:1],4>2[8:1],2<8[8:1],6-2[8:1],
{8},6>3[8:1],1>1[8:3],6,1,,,,
{8},
{16}3,3,3,,
{8}7,1/2>5[8:1],5v2[8:1],,1-4[8:1],
{8}6,5-8[8:1]*<8[8:1],,5>2[8:1]*p1[8:1],,5,,,
{8}1/7-3[8:1],45,7/2<8[8:1],
{8}8<6[8:1],6>4[8:1],4>2[8:1],2,8b,7b-3[8:1],4,4<6[8:1],
{8}6<8[8:1],8>2[8:1],2>4[8:1],4,6,7-3[8:1],,6-1[8:1],6,,4qq4[4:3]*pp4[4:3],,4,
{8},,,,,,,5<3[8:3]/8,
{8},8,3qq5[8:13],5,7,,5h[8:1],,
{8}6h[8:1],,7h[8:1],,8h[8:1],,7h[8:1],,
{8}6h[8:1],,7h[8:1],,7h[8:1]/8h[8:1],,1h[8:1]/8,6>8[8:3],
{8},3,8qq2[8:11],7,4,,2h[8:1],,
{8}3h[8:1],,4h[8:1],,5h[8:1],,4h[8:1],,
{16}8b,3,
{16}6,3,8,4,8,3,1,2,8,3,7,4,6,5,
{16}6b,3,7,3,5,4,7,8,7,1,5,3,8,,2b/1b,,
{8},,,,,,,8bw4[1:2],
{8},,,,,,,,
{8},,,,,,,,
{8},,,,,,,,E
