&title=Thunderstrike 1988
&artist=Sephid
&first=0
&des=Hoshimiyafanboy
&lv_5=13+
&des_5=Hoshimiyafanboy
&inote_5=
(190){4},{8},,,,,,8h[8:3],
,,1h[8:3],,,{4}2h[4:3],
{8},3,,,{4}4>1[8:1],5,
{8}6h[8:3],,,7h[8:3],,,{4}8h[4:3],
{8},1,{4}1,{8}2>5[8:1],1,{4}2/8-6[8:1],
{8}8b,4,8-5[8:1],4,8b,3,8-4[8:1],3,
8b,2,8-3[8:1],2,8b,1,8-4[8:1],1-3[8:1],
8-6[8:1],1-5[8:1],8-4[8:1],1-3[8:1],8,1,8,1,
7/2,{16}B2,B3,{8}B4,{16}B7,B6,{8}B5,{16}6/3,7/2,{4}8-5b[8:1]`1-4[8:1],
{1}8b/1b,
,,C,
{4}B6/E7/B7,A1,{2}A2,
3h[4:1]/E6,6h[4:1]/E4,
{4}E1,E8,C,E5,
E4,E3,{16}8,7,6,5,1,2,3,4,
{4}5b/7bh[2:1],3h[4:1],{8},,8/1-5[8:1],2,
7/1>4[8:1],8,{4}1/7-2[8:1],7/5,{8}4,7,
8/3-6[8:1],2,{4}3/7<4[8:1],7/4,{8}3,5,
{4}4,{8}6,4,5,3,{4}5/4,
{8}4/5,4,6/3,3,7/4,7,6/3,6,
4/5,3,7/2,6,5/3,2,1/8,7,
{16}6,4,6,4,7,3,7,3,8,2,8,2,{4}1-5[8:1],
1-3b[8:1],1b-5[8:1],{8}1-4b[8:1]*-6b[8:1],2,{4}1bx,
{8}5,6/4,7/3,2-7>1[4:1],,2/3-6>4b[4:1],,3,
,2,{4}5x/3h[8:1],{8}4,{16}6,5,{8}7,{16}4<7[8:1],5,
{8}3v8b[8:1],A4,A3,6xv4<7[4:1],,6/1v3>8b[4:1],,1,
,7,6,3,5/4,{16}5,4,6,3,7,2,
{8}8/1,7,2,6-1<7[4:1],,6/5-2>4b[4:1],,5,
,6,{4}3x/5h[8:1],{8}3,{16}5,4,,3,6,3,
5,4,5,4,6,3,6,3,7,2,7,2,8V64[2:1],1,8,1,
,,,,{4}4V28b[2:1],{2}Cf,
{4}3h[4:1],8,{16}8h[16:3],,,7h[16:3],,,{8}6,
{4}5h[4:1],7,{16}4h[16:3],,,3h[16:3],,,{8}2h[4:1],
,8,{4}8/2,{16}7h[16:3],,,6h[16:3],,,{8}5,
4,4,4,{16}5,5,3h[16:3],,,2h[16:3],,,{8}1,
{4}1/8,7,{16}6/4h[16:3],,,3h[16:3],,,{8}2,
{4}2/1,8,{16}7h[16:3],,,6h[16:3],,,{8}5h[4:1],
,4,{4}4,{16}3h[16:3],,,2h[16:3],,,{8}1,
8,8,{4}8-5>4[4:1],{2}4-1b[8:1],
{4}8b/2b,1/7,{16}6/5,,,5/4,,,{8}3/4,
{4}2/1,1/8,{16}8/7,,,6/5,,,{8}4/3h[4:1],
,5,{4}5/3,{16}4/2,,,3/5,,,{8}4/6,
7,7,7,{16}4,4,5h[16:3],,,6h[16:3],,,{8}7,
{4}8/1,7b/2b,{16}5/4,,,6,{8}3-7[8:1],6,
{4}3,8b,{16}1/8,,,2,{8}7-3[8:1],2,
7,4,{4}4b,{16}6/5,,,7,{8}4-2[8:1],7-5[8:1],
4-8[8:1],7,4b,{16}6,6,1,,,8/2,,,{8}3/7,
{4}6h[8:1],C,E3,{8}E7,E6,
,4,4,5,5,4,{4}4,
{8},E3,{4}E4,C,{8}E7,{32}E6,B5,,,,,,,{8}4,
,6,{4}6/3,2,
8/A1,8,7/A2,{8}7,7,
A3,6,6,6,6/A4,6,{4}6,
{8}A5,4,{4}4,3/A6,{8}2h[32:1],2,
A7,1,,1p5[4:1]*q5b[4:1],{2}C,
6b/4b,E8,
E2,E4,
B6/B5,B8/B7,
B1/B2,{8}5,4,7,2,
{16}8,7,6,5,4,3,2,1,8,7,6,5,4,3,2,1,
8,7,6,5,8,1,2,3,4/5,6,7,8,4,3,2,1,
{12}6,8,7,3,1,2,{16}8,1,7,2,6,3,5,4,
{4}B7/E7/B6,B2/B3/E3,{8}1>4b[8:1]`8>4[8:1],7/2,{4}8/1b,
{32}5,6,{16}7h[16:3],{32},,,,4<7-3[4:1],3,{16}2h[16:3],,,,,,,{8}2,1,
2/4,{16}5,3,{8}5,{16}2,4,{8}2,{16}6,4,{8}6-3-7[4:1],{16}1,6,
{2}1-6-2b[4:1],{4}8h[4:1],{8}3,4,
6/5,{16}7,5,{8}7p8b[4:1],{16}4,7,{4}4,{8}2,2,
{32}8,7,{16}6h[16:3],{32},,,,1<5[4:1],2,{16}3h[16:3],,,{4}1>5b[4:1],{8}1v6-8[4:1],7,
1,A6,1-5-8b[4:1],2,1-3[8:1],A5,{4}1,
{32}7,6,{16}5h[16:3],{32},,,,2-8-6[4:1],3,{16}4h[16:3],,,{4}2V46b[4:1],{8}2z6s2[4:3],7,
{1},{32}5,
6,{16}7h[16:3],{32},,,,1q7-1[4:1],2,{16}3h[16:3],,,,,,,{8}4,4,
3/8,{16}2,1,{8}3,{16}8,1,{8}7,{16}2,1,{8}3-1-4[4:1],{16}8,3,
{2}7-1-6b[4:1],{4}3h[4:1],{8}6,5,
4/3,{16}3,4,{8}2v8>2b[4:1],{16}5,4,{8}6,7,7-2<4[2:1],7,
{16},,,,3,,,2,,,{8}3,{4}3-6>8b[2:1],
{16},,,,7,,,6,,,{8}7,{4}7-4[8:1]*-2[8:1],
{16},,,,3,,,2/4,,,{8}1/5,{16},8/6,,,1/7,
,,2/8<7-3>2-8-5[0.3158##0.5442]*<7-3>2-8-5[0.3158##0.5442],,,{8}1/8,(195){16},(194.375),(193.75),(193.125),(192.5),(191.875),(191.25),(190.625),
(190){4}2h[4:1],7h[4:1],1h[4:1],{8}8,7,
8/1,2,{4}6-3[8:1]/3-6[8:1],{8},,5/4,6,
7/2,1,{4}2-7[8:1]/7-2[8:1],{8},,3,6,
{4}5/4,{8}6,3,7,2,{4}1/8,
{16}1,8,1,8,1,8,1,8,2,7,2,7,2,7,2,7,
1,8,1,8,2,7,2,7,1,2,3,4,8,7,6,5,
{24}1,2,3,4,5,6,7,8,1,2,3,4,8/5,7,6,5,4,3,2,1,8,7,6,5,
{2}2-7b[8:1]`4-7[8:1],{8}8<5b[8:1]`1<5[8:1],7/2,{4}1/8b,
4-7[8:1],4/2-4[8:1],{16}2-5[8:1],,,1,{8}2,8,
{4}7/2-5[8:1],2/6-1[8:1],{16}6-4[8:1],,,3,{8}6,2,
{4}7/1-5[8:1],1/8-6[8:1],{16}6/8-4[8:1],,,5,{8}8,6,
{4}3/5-1[8:1],5/4-2[8:1],{16}2/4-8[8:1],,,1,{8}4,2,
{4}7-2[8:1]/3-6[8:1],3b/7b,{16}1/5,,,8,{8}4,7/3,
{4}2-7b[8:1]/6-3[8:1],6b/2b,{16}8/4,,,1,{8}5,2/6,
{4}3/7,{8}5/4,{16}3,4,,7,8,7,,2,{8}1,
6/5,{16}4,7,3v6>3[4:1],8,2,1,{8}3,{16}8,8,,7,2,7,
1-5-3[4:1],8,1,8,{4}1b-5-7b[4:1],1,{8}2,2,
1/8-4[8:1],7,{4}8/2-6b[8:1],2/7,{8}5,6,
5/4-1[8:1],3,{4}4/5-8b[8:1],5/2,{8}7/2,6/3,
{4}5/4-8[8:1],{8}4/6-2b[8:1],5,6/4,3,{4}5/4,
8/1q4[4:1],1/8p5b[4:1],8,{8}3,2,
1/8-3[8:1],7,{4}8/1-6b[8:1],1/8,{8}5/4,2,
8/3,5,6/1,4,{16}8,1,7,2,6,3,5,4,
{4}5<4[8:3],{8}5,4-8b[4:1],E6,C,{4}E2,
{8}7/1,2,4/3,5-1-7[4:1],,5/4-2-7b[4:1],,4,
,6,{4}5/1h[8:1],{8}6,{16}2,4,{8}3,{16}6v8[8:1],4,
{8}5-3-1b[8:1],A6,A5,7>1-5[4:1],,7/3>1-5b[4:1],,3,
,7,8/4,3,2/1,{16}1,2,8,3,7,4,
{8}6/5,7,4,3>1-6[4:1],,3/4p8-6b[4:1],,4,
,3,4/5,6,3,{16}5,4,,2,7,2,
8,1,8,1,7,2,7,2,8,7,6,5,4,3,2,1,
{2}8bx-4b[8:1],8x-4[8:1],
{1}2h[1:1],
6h[1:1],
4h[1:1],
{2}8h[2:1],{16}2,,,,,,,,
{1}B2/B3/Cfh[1:3],
8,
6,
{8},,8x-5b[8:1]`1x-4[8:1],7x/2x,{4}8b/1,A7/D7/A6`D3,
E
