&title=Break Through the Barrier
&artist=lixound
&first=0
&des=SeiKA
&lv_5=13+
&inote_5=(176)
{1},
{16}2h[16:3]/5h[16:3],,,,,,1>6[4:1]/4h[4:1],,,,E2,E3,E4,E5,E6/7x-3[8:1],,
{16},,7x/8x-2[8:1],,,,6x-4[8:1]/8x,,,,3/6,,2-5[8:1],,,,
{16}6h[16:3]/2,,,,,,5h[4:1]/7>4[4:1],,,,E8,E1,E2,E3,E4/1x-5[8:1],,
{16},,1x/8x-6[8:1],,,,8x/2x-4[8:1],,,,2/5,,6,,,,
{16}7h[16:3]/4h[16:3],,,,,,8<3[4:1]/5h[4:1],,,,E8,E7,E6,E5,E4/2x-6[8:1],,
{16},,2x/1x-7[8:1],,,,3x-5[8:1]/1x,,,,6/3,,7bxh[4:1],,,,
{16}6b>7[2:3],,,E6,,,E5,,,E4,,,E3,,,,D6,,,D5,,,D4,,,D3,,,D2,,,,
{4}4bh[4:3]/8bh[4:15],,,,3h[4:3],,,,2h[4:3],,,,1h[4:3],,,,
{16}78,,7,,76,,6,,56,,5,,45,,4,,34,,2,,46,,7,,24,,1,,47,,6,,
{16}3,5,2,7,4,6,2,8,1,7,2,5,4,6,3,5,1bV35[4:1]*V75[4:1],,,,,,,,,,,,Cf/B6/E7/B3/E3,,,,
{16}2xh[4:1]/6x,,,,4b,,6,5,7,,3,3,4,,2,,17,,6,5,8-4[8:1],,4-2-6-1[8:3]b,,8,,,,,,,,
{16}2,,3,4,3,,6,,57,,3,3,4,,2,,7-4[8:1],,8,,3-1[8:1]/7-1[8:1],,,,7/3V57[4:1],,,,3b,,,,
{16}8xh[4:1],,,,6,,,,34,,2,1,2,,4,,35,,7,7,5<2<5[2:1]b,,3h[8:3],,5,,,,,,,,
{16}2,,2,,35,,6,5,,3,4,,2-4[8:1]/5,,1,,2/8,,7,,56,,4,5,,3,4,2,Cf,,,,
{16}7xh[4:1]/1x,,,,5b,,3,4,2,,6,6,5,,7,,82,,3,4,1-5[8:1],,5-7-3-8[8:3]b,,1,,,,,,,,
{16}7,,6,5,6,,3,,42,,5,5,4,,6,,2-5[8:1],,1,,6-8[8:1]/2-8[8:1],,,,2/6V42[4:1],,,,6b,,,,
{16}1xh[4:1],,,,E1,E8,E7,E6,3xh[4:1],,,,E3,E2,E1,E8,5x-2[8:1]*-8[8:1],,,,5x,,,,{32}7xh[4:1],,,,B1,C,B5,A5,,,,,A2,E3,E4,A4,
{16}1bxw5[8:1],,,,1bx<4-8-2z6-4[4:5]b,,,,,,3x,,,,3x,,3x,,,,3x,,3x,,,,3x,,D3,D2,D1,D8,
{16}4xw8[8:1],,,,4bx>8-2z6V48[4:5]b,,,,,,7x,,,,7x,,7x,,,,7x,,7x,,,,7x,,D7,D6,D5,D4,
{16}8xw4[8:1],,,,8bx>5-1-7s3-5[4:5]b,,,,,,6x,,,,6x,,6x,,,,6x,,6x,,,,6x,,D7,D8,D1,D2,
{16}5xw1[8:1],,,,5bx<1-7s3V51[4:5]b,,,,,,2x,,,,2x,,2x,,,,2x,,2x,,,,2x,,D3,D4,D5,D6,
{4}Ch[1:5],,,,,,,,3h[8:1],3h[8:1],3h[8:1],3h[8:1],2h[8:1],2h[8:1],2h[8:1],2h[8:1],1h[8:1],1h[8:1],1h[8:1],1h[8:1],8h[8:1],8h[8:1],8h[8:1],8h[8:1],{8}7,7,7,7,6,6,6,6,5,5,5,5,4,4,3,3,
{32}2/4,,,,2,,,,2,,,,E5,E6,E7,E8,3,,,,3,,,,3,,,,E6,E7,E8,E1,
{32}4,,,,4,,,,4,,,,E7,E8,E1,E2,3,,3h[8:1],,,,4,,,,2,,2h[8:1],,,,
{32}6,,,,6,,,,6,,,,E1,E2,E3,E4,7,,,,7,,,,7,,,,E2,E3,E4,E5,
{32}8,,,,8,,,,8,,,,E3,E4,E5,E6,7,,7h[8:1],,,,8,,,,6,,6h[8:1],,,,
{16}1,,3,4,2,,6,5,7,,3,4,2,,6,4,8,,3,5,1,,7,8,6,,3,4,2,,6,6,4,5,4,5,4,5,4,5,3,6,3,6,3,6,3,6,2,7,2,7,2,7,2,7,1b-5[16:1],,,7b-3[16:1],,,2b,,
{16}2h[2:1],,,,,,,,8h,1h,7h,2h,6h,3h,5h,4h,Cf,,,,,,,,,,,,,,,,
{16}2-4[8:1],,1,1,2<5[4:1],,6,,2/5>8[4:1],,,,7,,,,6-4[8:1],,7,7,6>1[4:1],,8,,1<4[4:1]/6,,,,3,,,,
{16}1-7[8:1],,3,3,1>6[4:1],,5,,16,,,,7V53[4:1],,7,,4,3,2,1,8-4[8:1],,5,,8b<5[8:1],,,,8/3,,3,,
{16}24,,6,5,7,,8h[8:1],,2-5[8:1],1,,1,2,,6,,47,,3,3,4,,6h[8:1],,5-3[8:1],7,,7,5,,8,,
{16}75,,3,4,2,,1h[8:1],,7-4[8:1],8,,8,7,,3,,52,,{32}1,8,7,6,5,,,,7,6,5,4,3,,,,2h[8:1],,,,8,,1,,8,,1,,
{16}7-5[8:1],,5,5,7>4[4:1],,3,,7/4<1[4:1],,,,2,,,,3-1[8:1],,4,,3/7-4[8:1],,8,,7/2-6[8:1],,1,,2b/5b,,,,
{16}8-2[8:1],,5,5,8<3[4:1],,4,,83,,,,2-5[8:1],,1,,2/8-4[8:1],,1,,3-7[8:1]/8,,2,,3/5w1[8:1],,,,5b,,,,
{16}7v5[8:1],,5-3[8:1],,4,4,,2,,{32}2h[16:3],,A1,A8,A7,A6,A5,,,,,,,,
{16}3-1[8:1],,1v7[8:1],,8,8,,6,,{32}6h[16:3],,A1,A2,A3,A4,A5,,,,Cf,,,,
{1},
{16}E8,B7,B6,E6,E2,B2,B3,E4,{32}A5,D6,A6,D7,A7,D8,A8,D1,A1,D2,A2,D3,A3,D4,A4,D5,
{16}2x/A5,,,3,4,,1h[4:1],,3,4,5,6,7/2,3,4,5,68,,,7,5,,6h[4:1],,4,3,2,1,8/5,4,3,2,
{16}1/4,,,6,5,,8h[4:1],,6,5,4,3,2/7,6,5,4,31,,,2,4,,3h[4:1],,5,6,7,8,1/4,5,6,7,
{16}5/8,,,3,4,,25,,6,5,6,5,7,5,8,5,1,,,6,5,,47,,3,4,3,4,2,4,1,4,
{16}8b,,6,5,7,,26,,3<6[8:1],4,2,,3,,,,8,1,8,1,8,1,8,1,7,2,6,3,4bx/5bx,,,,
{16}24,,2,,12,,7,8,6-2[8:1],,2-4[8:1],,6,,1,,8,,5,,46,,3,4,2-5[8:1],,5,,2,,,,
{16}46,,6,,86,,2,1,3-7[8:1],,7-5[8:1],,3,,8,,1,,4,,53,,6,5,8bh[4:1],,,,B2/E3,,,,
{8}3bx/7bx<4[8:1],,,2bx<7[8:1],,,5bx>2[8:1],,,8bx<5[8:1],,,1h[4:1],{32}B4,C,B8,A8,,,,,A3,E3,E2,A1,
{16}4bxw8[8:1],,,,4bx<1-5-3s7-1[4:5]b,,,,,,2x,,,,2x,,2x,,,,2x,,2x,,,,2x,,D3,D4,D5,D6,
{16}1xw5[8:1],,,,1bx>5-3s7V15[4:5]b,,,,,,6x,,,,6x,,6x,,,,6x,,6x,,,,6x,,D7,D8,D1,D2,
{16}5xw1[8:1],,,,5bx>8-4-6z2-8[4:5]b,,,,,,7x,,,,7x,,7x,,,,7x,,7x,,,,7x,,D7,D6,D5,D4,
{16}8xw4[8:1],,,,8bx<4-6z2V84[4:5]b,,,,,,3x,,,,3x,,3x,,,,3x,,3x,,,,3x,,D3,D2,D1,D8,
