&title=Singing!
&artist=放課後ティータイム
&first=0
&des=9V_Y2-6
&lv_5=13+
&lv_6=13
&inote_5=
&inote_6=(180){4},,,,
{8},5,4,5,4,5,,5,4,5,,5,4,5,4,5,,6,4,6,4,6,,6,4,6,,6,4,6,4,6,,5,3,5,3,5,,5,3,5,,5,3,5,3,5,,7,7,5,5,6h[4:1],,3,3,4,,2,2,5-8[8:1],5,4b,,2pp4[8:1],,1,,2pp4[8:1],,1,1h[4:1],,4,,3/8-3[8:1],3/8-4[8:1],,,,2pp4[8:1],,1,,2pp4[8:1],,1,1h[4:1],,4,,38,3/8-4[8:1]*-3[8:1],,8b,,7/2pp4[8:1],,1,,7/2pp4[8:1],,1,1h[4:1],,4,,3/8-3[8:1],3/8-4[8:1],,,,2pp4[8:1]/6,,1,,6/2pp4[8:1],,1,8qq6[8:1],,4,,3,2-5[8:1]*-6[8:1],,2b,,4/7h[4:6],,4,,4,,4,,3-5[8:1],,,,3-5[8:1],,7,,2h[4:6]/6,,6,,6,,6,,5-7[8:1],,,,5-7[8:1],,4,,3h[8:4]/6,,5,,4,,3,,6h[8:4]/3,,4,,5,,6,,5/7-5[8:1],,4,,3-1[8:1],,4pp8[2:1],4,2h[2:1],,,,,,2b/8b,,7-4[8:1]/1,,3,,7-4[8:1]/1,,3,3h[4:1],,4,5,6,7-5[8:1],7,4,,2-5[8:1]/8,,6,,2-5[8:1]/8,,6,6h[4:1],,5,4,3,2-4[8:1],2,5,6,7-5[8:1]/4,,1,,.7-5[8:1]/4,,1,1h[4:1],,4,5,6,7-5[8:1],,4,,3-1[8:1],,4,,5qq8[2:1],,1b,1h[8:3],,,,,2,2,
{16}13,8,7,6,
{8}4b-2[8:1],,5,,6-8[8:1],6,5,,4>2[8:1],,1,,6<8[8:1],,1,,2h[4:1],,4,,6,6,5,7-5[8:1],,5,,4,4-8[8:1],,5,,6-8[8:1],,5,,4-2[8:1],4,5,,6<8[8:1],,1,,4>2[8:1],,1,,7h[4:1],,5,,3,3,4,,2,2,4,3,5-8[8:1],,4,,3h[4:1],,4,,2,2,4,3,7,7,5,6,4-1[8:1],,5,,6-4[8:1],,2-8[8:1],,6>4[8:1],,2<8[8:1],,7,7-3[8:1],,,1>4[8:1]*<6[8:1],,1b,,5b-1[8:1],,45,,2-5[8:1],2,82,,7<4[8:1],,8,,7<4[8:1],,8,,7<4[4:1],,4>1[4:1],,1<6[4:1],,6,,5p1[8:1],,6,,4q8[8:1],,3,,4b-8[8:1],,45,,7-4[8:1],7,17,,2>5[8:1],,1,,2>5[8:1],,1,,2>5[4:1],,5<8[4:1],,8>3[4:1],,3,,4q8[8:1],,3,,5p1[8:1],,6,6,6b<3[4:1],,5,,5p1[8:1],,6,6,6b<3[4:1],,5,,5p1[8:1],,6,6,7b,7,5,6,4,5-8[8:1],,2b-5[8:1],,7b-2[8:1],,4,4bw8[8:1],,4,,6h[4:1]/2-5[8:1],,,,4-1[8:1]/7h[4:1],,,,3b/7bp4[2:1],,3b/7b,,3,,2,,5b/1bs5[1:1],,,,,,,,,,,,7h[4:1],,1s5[4:4],,15,,6,,,,6,,7h[4:1],,4,3,2b-6[8:1],,,,58,58,47,47,36,36,25,25,14,14,25,25,36,36,47,47,8-5[8:1],,8,1-4[8:1],,1,7-3[8:1],7,2b,2bw6[8:1],,,,,48,,6/2pp4[8:1],,8qq6[8:1],,1h[4:1],,4,4-7[8:1],,2h[4:1],,8-3[8:1],8-4[8:1],,,,6/2pp4[8:1],,8qq6[8:1],,1,1,4,4-7[8:1],,2h[4:1],,8,8-3[8:1]*-4[8:1],,8b,,6/2pp4[8:1],,8qq6[8:1],,1h[4:1],,4,4<7[8:1],,2-6[8:1],,8-3[8:1],8-4[8:1],,,,2pp4[8:1]/6,2,8qq6[8:1],8,1,1h[4:1],,4<7[8:1],,2h[4:1],,8h[4:1],
{16}6,5,4,3,2,1,8,,
{8}78,78,16,16,5/2-5[8:1],,6,6,7-1[8:1],7,,4w8[8:1],,4b,,
