&title=Giselle
&artist=Widowmaker
&first=0
&des=NaOH
&clock_count=4
&lv_4=12+
&lv_5=14
&inote_4=(152){4},,,,,,,,
3V14[4:9]b*pp4[4:9]b,,,,,,,,,,,,
2x-4[8:1]/1x-4[8:1],,56,78,7x-5[8:1]/8x-5[8:1],,34,12,
{8}3,3,7,7,4,4,6,6,3,4,5,6,5-1[8:1]/7,,B7/E8,,
{4}7x-4[8:1]/8x-4[8:1],,35,26,2x-5[8:1]/1x-5[8:1],,46,37,
{8}2,2,7,7,1,1,6,6,2^7[8:1],,5p5[8:3],,B2/B3,,,,
(148){4}4x>1[4:2],,E6/B5,E8/B8,
(144)7xpp4[4:3],,(140),(128),
(136)2h[4:1],,3h[4:1]/4h[4:1],,
2/5h[4:1],1h[4:2],6h[4:1],,
7/4h[4:1],8h[4:2],3h[4:1],,
2/5h[4:1],3h[4:2],7h[4:1],,
(140)3/5h[4:2],B1,3h[4:2],E8,6h[4:1],2h[4:2],4h[4:1],,
(144)4V28[4:2]/2V48[4:2]b,,,,
6x^1[8:1]/5x,E2/B2,4x>1[8:1]/5x,B5/B6,7x-3[8:1],1s5[4:1],,,
(152)
{8}7,7,3,3,6,6,2,2,5V71[4:1],,E2/B2,,4-1[8:1],,,,
{4}3x^8[8:1]/4x,E8/B7,5x<8[8:1]/4x,B4/B3,
2x-6[8:1],8z4[4:1],,3>6[4:2],,,,5h[4:1],4b,
{8}34,3,3-8[8:1]/4h[4:1],,,,24,3,35,5,5<8[8:1]/3h[4:1],,,,
2,3,4,5,3,4,5,6,4,5,6,7,56,56,4b/7b,,
6h[4:2],,4,3,2h[4:2],,4,5,6h[4:2],,8,1,2,3,4-1[8:1],,
8,,7,7,5,5,8v6^4b[4:3],,A4f/D4/E4,,,,,,
1v4-6[4:3],,A7f/E7/E8,,,,,,,,
8,1,8,2,8,3,8,4,37,6,5,4,3,2,1,8,
{4}7bV51^4-8[4:13]/2b,,,,,,,,,,,,,,,,
{8}1x/8x,1,1x/7x,1,1x-5[8:1]/6x,1,7,7,8x/1x,8,8x/2x,8,8x-4[8:1]/3x,8,2,2,
1,1,28,28,37,37,46,46,
{16}5,7,5,7,5pp3[4:3]b,7,5,7,5b,,,,,,,,,,,,
{32},,,
{16}1x,,,1xh[8:3],,,,,,{32},,,
{16}28,,7h[16:1],,6h[16:1],,5h[16:1],,34,,3h[8:1]/4h[8:1],,,,25,,
16,,E1,E2,E3,E4,E5,,6,,6h[16:3],,,,5,,4h[16:1],,3h[16:1],,2h[16:1],,1h[16:1],,
7,,7h[16:3],,,,,5bx,,,3bx,4bx,,1bx,,,7,,7h[16:3],,,,,,
3x,,5,4,,5,4,,36,,3h[16:3]/6h[16:3],,,,,,
2q6[8:1]/7,,,,8b,,,,7p3[8:1]/2,,,,1b,,,,
1-5[8:1]/8,,,,7bh[4:1],,,,4xq7[4:2],3x,2x,1x,8x,,,,,,,,,,,,
23,,2h[16:3]/3h[16:3],,,,,,34,,45,,56,,,,
67,,6h[16:3]/7h[16:3],,,,,,78,,18,,12,,,
5xh[16:3]/6xh[16:3],,,,,,,,,
2xh[8:3],,,4,,,4,,5h[16:5],,4h[4:1],,,,,
7x,8x,1x,2x,3x,4x,5x,6x,7x-3[8:1],,,,1x,,,,,
2h[16:1],,3h[16:1],,4h[16:1],,5h[16:1],,6-2[8:1],,,4x,,,4x,,
{4}3-8[8:1]/4,7b,6-1[8:1]/5,2b,3>6[4:2]b/4p5[4:2],,,,
{8}
2,3,4,5,6^3[8:1],,,,2,7,6,5,4^1[8:1],,,,
7,2,3,4,5<8[8:1],,,,1,2,3,4,5,5,46,,
7,6,5,4,6,5,4,3,25,2,36,3,4-8[8:1]/7,6,5h[4:1],,
Ch[4:4],,,,,,,,7h[4:2],,,,1,1,2b/8b,,
3,24,4,35,5-1[8:1],,7,,6,57,5,46,4-8[8:1],,2,,
2,3,7,6,3,4,6,5,4,3,2,1,8w4[8:1]b,,,,
2,15,26,37,4>1[8:1]/8<5[8:1]b,,,,
7,84,73,62,5<8[8:1]/1>4[8:1]b,,,,
3,24,6,57,8,17,2,28,
3h[4:2]/7,,{24}8x,7x,6x,5x,,,7h[4:2],,,,,,1x,2x,3x,4x,,,
3h[4:2],,,,,,8x,7x,6x,5x,,,7h[4:1],,,,,,1x,2x,3x,4x,,,
{16}3x,4x,3x,4x,2,5,2,5,1,6,1,6,8,7,8,7,
1,2,3,4,5,6,7,8,1x,,2,,3,,4,,5-3[8:1]*-7[8:1],,,,,,,,,
1,8,1,8,1,8,1,8,1,8,1,8,1,8,1,8,1,8,1,8,1,8,1,8,1,8,1,8,1,8,1,8,1,8,1,8,1,8,1,
E8,E7,E6,E5,E4,E3,E2,E1,E8,E7,E6,E5,,,,,
&inote_5=(152)
{4},,,,,,,,
{16}6h[16:11]/E2,E1,E8,E7,E6,E5,E4,3xV14[16:33]b*pp4[16:33]b,2x,1x,8bx,,,,,,,,,,,,,,,,,,,,,,
,,,,,,,,,,,,,,,,
{16}6xz2[8:2]b/2xh[4:1],,,,,,,,1-5[8:1],,,,17,,,,
6xz2[8:2]b/2xh[4:1],,,,,,,,1-5[8:1],,,,17,,,,
6,5,7,5,6,4,5,3,6,4,7,5,8,4,8,4,
8,7,6,5,1-5[8:1],2,3,4,5qq3[8:1]*pp7[8:1],,,,,,,,
2xq3[4:1]b/6xh[4:1],,,,,,,,8<5[8:1],,,,28,,,,
2xq4[4:1]b/6xh[4:1],,,,,,,,8<5[8:1],,,,28,,,,
3,4,3,4,2,5,2,5,3,4,2,4,1,5,2,5,1-5[8:1],,,,7-2V86[4:2],,,,,,,,
4,,3,,
(148)2h[4:2],,,,3x,4x,5xqq3[16:5],6x,7x,,,,8,,,,
(144)7h[8:1],,4,4,6,5,4,3,
(140)6^3[8:1],,,,(128)2,,,,
(136)5pp6[8:2],,,,,,,,4qq3[8:2],,,,,,,,
7^2[4:1],,,,3^6^3[4:2],,,,,,,,,,,,
7h[16:7],,,,6,,,5,5-1[4:1],,,,,,,,
8<4[4:1],,,,4<8[4:1],,,,2h[4:1],,,,,,,,
(140)3qq2[4:1],,,,4h[16:3],,,,5pp6[4:1],,,,4h[16:3],,,,
3>7[32:7],,,,5pp5[8:3]*qq5[8:3],,,,A5/E6/E5,,,,,,,,
(144)3-6[4:1]*^6[4:1],,,,,,,,,,,,2q6[8:1],,,,
2b/8b,,,,7p3[8:1]/1h[16:3],,,,7b,,,,2^7[8:1]/6h[16:3],,,,6bq2[8:1]/2,,,,
3b^6q3[4:1]/6,,,,7h[8:3]/3b,,,,,,,,
(152)26,,3,,4,5,4,5,3,,3,4,2,,24,,1q5[8:1],,,7,7,,,,8p4[8:1],,,3,3>8[8:1],,,,
3b/5b,,,,7<4[8:1]/2h[16:3],,,,3b/7b,,,,2^7[8:1]/5h[16:3],,,,
6b^3[8:1]/2,,,,2b-6[8:1]/6,,,,7b^2[8:1]/2,,,,
3<2[8:3],,,,6h[4:1],,,,,,,,3-5[12:1],,,,8-4[8:1]/3,,,,
1bh[4:1]/8b,,,,4,2,5,3,6v5[8:1],,,,E2/B2,,,,
8h[8:1],,6,7,5,6,4,5,3v2[8:1],,,,E5/D5,,,,
5,4,6,3,A7,E8,E2,A2,3,6,2,7,D2,A1,A8,D8,
3,6,4,5,2,7,1,8,2-4[8:1]b/7-5[8:1],,18,,,,,,
3,,3,,E8,E7,E6,,4,,4,,E6,E7,E8,E1,
2,3,4,5,1,8,7,6,45,,34,,1/2>5[8:1],,18,,2/7h[4:1],,,,
8,1,2,3,48,1,2,3,4<8[4:1]b,,,,
{32}4b/A8f,D1,A1,D2,A2,D3,A3,D4,A4,D5,A5,D6,A6,D7,A7,D8,A8,,,,,,,,
4x>8[4:1]b/8x,,,,,,,,4b/A8f,D8,A7,D7,A6,D6,A5,D5,A4,D4,A3,D3,A2,D2,A1,D1,A8,,,,,,,,
{16}6xh[16:5],,,,,
2,1,7,8,2,1,7,8,3,2,6,7,3,2,6,7,4,3,5,6,4,3,5,6,2,1,8,7,6,5,4,
{4}3bq8>6[4:12],,,,,,,,7xh[4:1],,8xh[4:1],,1xh[4:1],,
8-5[8:1],
{16},,2,,2x,6,4,6,2x,6,4,6,1x-4[8:1],6,3,6,1x,,7,,
7x,3,5,3,7x,3,5,3,8x-5[8:1],3,6,3,8x,,2,,
3,7,1,7,4,6,2,6,3,5,1,7,4,6,2,8,
1,1,1,1,1,1,1,1,
{24}1bx,28,3-7[8:3]/7,4-1-6[24:8]b/6,,,,,,,,,,,,,,,,,,2,,,
{16}2v3^5[16:3],,,5-1[8:1],,,,,8,,7,7,6,6,5,5,4v2^1[16:3],,,1-5[8:1],,,
8,,7v6-4[16:3],,3h[16:1],,3h[16:1],,3h[16:1],,3^2v1^8[16:3],,4h[16:3],,,,4,,
,6V41[16:5],,4,,,1-6-4[4:1]b,,2,,2h[8:1],,,2h[8:1],,,
{64}E7,E6,,,,,,,,E4/D4,,,,E8/D8,,,,,,,,,,,E3,E2,D2f,,,,,,
{16}8v7^5v4[16:5],,,1h[16:3],,,,,2h[16:1],,2h[16:1],,
3v2^1[16:3],,4,,5v6^7b[16:3],,,5,,,,,
8x^7^6^5[8:1]b/4x,,,,3h[16:3]/8b,,,,
1x>4[8:1]/5x,,,,6h[16:3]/1b,,,,
7-3[8:1]/1,,,,7b/2h[16:3],,,,
{24}1v7^8v5[8:5],8,7,6,5,4,3b,,,,,,,,,,,,,,,,,,
{16}1^2v3[16:3],,,3-5^6[8:1],,,,,8,,8,8,2,2,4,4,3v4^5[16:3],,,5-1^2[16:3],,,6,,
7h[16:1],,7h[16:1],,6h[16:1]/5h[16:1],,5h[16:1]/4h[16:1],,
2v7[8:1]*q7[8:1]/7,,,18,,,,,,
23,,4h[8:1]/5h[8:1],,,4h[16:1]/5h[16:1],,
7-5^4[8:1]/3h[8:1],,,2h[16:6],,,,
{24}1,8,7,6,5,4,1,8,7,6,5,4,
{16}1-7v6-4[16:3]/3,,,2h[16:5],,,,,,
2,,3,3,4,4,5,5,6^3[8:1],,7h[16:4],,,,,
8,8qq7[8:1]b/1,,,,3bh[16:3]/8b,,,,
4qq3[8:1],,,,6bh[16:3]/4b,,,,
2v3[8:1]`6v7[8:1]b,,,,2b>6[4:1]`6b<2[4:1]b,,,,,,,,,,,,
7,8,1,2,7,8,1,2,8<5[8:1],,,,2,,2,,
3,4,5,6,3,4,5,6,4>1[8:1],,,,7,,7,,
7,8,1,2,6,5,4,3,5<8[8:1],,,,1,,2,,
3,4,5,6,E2,B1,B8,E8,3v1[8:1],4,5,6,7,,,,
2,3,5,6,3,4,6,7,48,,37,,26,,15,,
{24}2,4,3,4,2,4,3,,,5,,,{16}4q1[8:1]*v2[8:1]/6,,57,,A4/B4,,,,
8,7,6,5,1,2,3,4,6,7,8,1,6-4[16:1]b,7,8,1,2h[4:2]/6,,,,,,,,
4,,4,,3,4,5,,
6x,,57,,6,5,7,,8x-4[8:1],,57,,8x,,1,,
3x,,42,,3,4,2,,1x-5[8:1],,42,,1x,,8,,
2x,4,3,4,1x,5,4,5,2x,7,5,6,1x,7,4,5,
1,6,5,7,4,8,3,7,2-6[8:1]*-5[8:1],,,,2b,,,,
1xh[8:1],,4,8,5,1,6,2,7-4[8:1]/3-8[8:1],,,,3b/7b,,,,
8xh[8:1],,5,1,4,8,3,7,2-5[8:1]/6-1[8:1],,,,2b/6b,,,,
3,4,2,5,8,7,1,6,4,5,3,6,1>4[8:1]/7,,,,
{32}1b/7h[4:1],,,,,,,,1b<6[8:1],2,3,4,5,,,,
1b/2h[4:1],,,,,,,,8b>3[8:1],7,6,5,4,,,,
8b/6h[4:1],,,,,,,,2b^7[8:1],3,4,5,6,,,,
2b/3h[4:1],,,,,,,,7b,6,5,4,3,2,1,8,
{24}2x/7x,6,5,4,3,2,1x/8x,7,6,5,4,3,2x/8x,7,6,5,4,3,2x/7x,6,5,4,3,2,
{16}1x/7x,6,5,4,3x/6x,5,4,3,25,,13,,24,,4-6[16:1]/2h[8:1],,,,,,,,,,,
{24}2,6,2,6,2,6,2,6,2,6,2,6,2,6,2,6,2,6,2,6,2,6,2,6,2,6,2,6,2,6,2,6,2,6,2,6,2,6,2,6,
2,6,2,6,2,6,2,6,2,6,2,6,2,6,2,6,2,{96},,,,
{24}3x,4,5,6,7,8,15,4,3,2,1,8,
{8}3V14[8:3]b*pp4[8:3]b/7,2,,,,,,,,,
