&title=Pangaea
&artist=sasakure.UK
&first=0
&des=WuWai
&lv_5=12
&inote_5=(118){1},,
{4}3<6[2:1]/6,,
{16},,,,,,,,,,,,
{16},6>3[2:1]/3,,,{4},,,,
{16},2>7[2:1]/7,,,{4},,,,
{16},7<2[2:1]/2,,,{4},,,
{16},,,,
{2}5h[2:1],4h[32:39],
{8},,6,
{16},2,,,,
{32},8qq4[2:1],,,,,,,,,
{12}1,,2,,,,3h[2:1],,,,,,6,,,
{16},,,,,,,,
{24}6,4qq8[4:7]/5pp1[4:7],3,,,,
{1},,
{16}3h[16:3]/4,,,4,,,3V17[4:1]/4,,,,3/7-3[8:1],,5,,,,
{16}6h[16:3],,,4,,,7,6,7h[16:3],,,2h[16:5],,,3,,
{16}3,,,24,,,7,,5h[16:3],,,6,,,2,,
{16}8/2h[16:3],,,8,,,8/2qq5[4:1],,,,2/5,,,,7h[2:1],,
{16}4,,3,,2,,1,,,,1p5[8:1]/7,,8,,21,,,
{16}2,,7,5,6,3,5,4,6,3,5-1[8:1],,1-6[8:1],1,5,
{16}2,,3,3,,7,7-3[8:1],,,,2qq6[2:1]/7,,1,,2,,,,,,,,,,,,
{16}8h[8:1]/7,,6q7[2:1],,5h[8:1]/6,,6,,,,,,,,,,,,
{16}2p4[4:1],,,,
{16}4-1[8:1]/2,,,5,,,6,,,,2/7h[4:1],,5-8[8:1],,3,,
{16}45,,,3,,,2p6[4:1],,,,6-1[8:1]/2,,5,,5<8[8:1],,,,
{16}5/1>4[8:1],,2,,1/5<8[8:1],,6,,15,,2qq6[2:1],,3,,
{16}52,,,,,,,,,,,,5-3[8:1]/6,,,,
{16}5,,,2h[16:3],,,6-1[8:1],,,,4-2[8:1]/6,,3,,4,,
{16},,8q4[8:1],,2,,78,,,,3,,
{24}5q1[8:1],,,,2,3,
{16}4qq8[2:1]/5,,,,
{16}7b,,,,7b,,,,7b,,,,
{16}1/8h[8:1],,5h[8:1],,4h[8:1],,2,,,,6-2[8:1]/7,,7h[8:1],,6,,
{16},,3-7[8:1]/2,,2h[8:1],,3,,,,8-4[8:1]/4h[8:1],,,,8,,
{16},,1-5[8:1]/5h[8:1],,,,1,,,,7,,,,2h[8:3],,
{16},,,,8,,1b-5[8:1]/5b-1[8:1],,,,5bqq8[2:1]/1bqq4[2:1],,,,5b/1b,,
{16},,,,,,,,,,3,,,,,6,
{16}6,,,2,,,1z5[4:1],,,,6,,6,,,,
{16}8>3[8:1],,4,,8,,4>1[8:1],,,,8<5[8:1]/4,,7,,8-4[8:1],,
{16},,3-7[8:1]/8,,2,,3,,,,18,,,,,,
{16}36,,2,4,3,5,4,6,5,7,5,6,4,5,3,4,
{16}2-6[8:1],,6-2[8:1],,2-4[8:1],,5<8[8:1],,,,5,,3,,3,,
{16}36,,7,5,6,4,5,3,4,2,4,3,5,4,6,5,
{16}7-3[8:1],,3-7[8:1],,7-5[8:1],,4>1[8:1],,,,4,,6,,6,,
{16}45,,3,5,4,4,6,5,5,6,3,5,5,4,6,3,
{16}27,,8-5[8:1]*-3[8:1],,3-8[8:1],,8-4[8:1],,,,7,,6,,5,,
{16}45,,6,4,5,5,3,4,4,3,6,4,4,5,3,6,
{16}27,,1-4[8:1]*-6[8:1],,6-1[8:1],,1-5[8:1],,,,2,,3,,4,,
{16}46,,7,,46,,8-4[8:1],,,,38,,2,,1-5[8:1],,,,
{16}61,,7,,8qq4[2:1],,,,84,,3,,2,,1,,,,
{16}1-3[8:1],,,,1,,8-4[8:1],,,,7-5[8:1]/8,,,,
{16}4qq8[2:1]/7,,,,4,,,,7,,7h[4:1],,,,
{16}2p5[4:1],,5,,5-3[8:1]/2,,6,,,,6,,7,,8v5[8:1],,,,
{16}1v4[8:1]/8,,2,,1,,,,5,,5q3[4:1],,,,
{16}3p5[4:1],,,,5q3[4:1],,,,3p5[4:1],,,,5q3[4:1],,,,
{16}3p5[4:1],,,,5q3[4:1],,,,3,,,,,,,,
{16}1h[8:5],,,,,,,,,,4h[4:1],,3,,3,,,,
{16}6-3[8:1],,3-5[8:1],,5-1[8:1]/6,,,,,,,,,,
{16}8h[2:1],,,,,,,,5h[4:1],,6,,6,,5pp8[2:1],,,,
{16}15,,2,,3,,,,,,2qq6[2:1]/7h[4:3],,,,
{16}2,,,,,,,,,,7,,7pp3[4:3]*-5[8:1],,,,
{16}7,,,,,,4,,,,,,4,,,,
{16}3h[4:1]/7,,,,7,,,,2h[4:1]/7,,,,7,,,,
{24}13,,86,,2,,7,,,18,,,18,,,
{16}3h[8:1],,8w4[8:1],,2,,
{16}8b,,,,2bV48[4:1]/6b,,,,2/8-4[8:1],,7,6V48[4:1],,6,,6,,,
{16}3<6[8:1],,,,,,,,
{16}7,,2,,18,,
{16}2h[4:1]/7bq3[8:1],,,,7b,,,,1,8,,2b-4[8:1]/6b-4[8:1],,4bw8[8:3],,2b/6b,,,,,,,,,,,
{16}43,,5-1[8:1],,61,,
{16}5b/4b-8[8:1],,,,4b,,,,7,,2v5[8:1],4,,,2/7,,7q8[4:1],,,3,,,3,,,,
{16}86,,85,,84,,8/1-5[8:1],,3,,1,8,,6,,,
{16}4-8[8:1],,5,3pp6[8:3],,3,,3,8h[2:1],,,,,,,,
{16}3b,,2b,,1b/8b,,
{16}1v6[8:1]/4,,8,2,1/2h[8:1],,,,2,,6,5,6,7,6,,
{16}45,,3,4,3,,3>7[4:1],,46,,37,6,5,4,3,,
{16}1-5[8:1],,5,5,5,,6,,3,4,,2bqq1[2:1]*pp3[2:1],,8b/4b,,2b,,,,,,,,,,,
{16}7/8-4[8:1],1,6,2,83,,
{16}2-6[8:1],,5,5,2,,7h[8:1],,,,18,7,4,5,2,,
{16}8v5[8:1]/7,,,2,8,,2-4[8:1],,1,,2/8v5[8:1],,7,,82,,
{16}7/1v4[8:1],,8,,12,2,,3h[16:3],,,8,,4,4p5[4:1]/8h[8:1],,,,4,8,,,,,,,,
{16}1b,,1b,,1b,,
{16}2/8v5[8:1],,1,,78,7,,6h[16:3],,,1,,5,5q4[4:1]/1h[8:1],,,,5,1,,,,,,,,
{16}38,,7,,62,,
{24}1b/8b,,1b/7b,,1b/6b,,1b/5b,,,1bV38[24:5]/5bV74[24:5],,,15,,,,,,,,,,,,
{1}8h[1:2]/4h[1:2],,,e
