&title=黒塗り世界宛て書簡
&artist=Frog96
&first=0.15
&des=M███e████o█w█。
&lv_5=13+
&des_5=M███e████o█w█。
&inote_5=
(185){4},,,,B7/B6,
B3/B2,{8}E7,E6,E5,E4,
,B7/E8/B8,{4}B1/E2/B2,E6,E4,
B2/B3,B6/B7,{8}E3,E4,,E6,
,C,,C,,C,,C/E6,
,C/E8,,C/E3,1,1,{4}8b/2b,
{8}1-5[8:1],4,1-3[8:1],6,1,8,7,6,
5-2[8:1],5-8[8:1],,,1-6[8:1],1-4[8:1],,,8-4[8:1],
5,8-6[8:1],3,8,1,2,3,
4-7[8:1],4-1[8:1],,,8-3[8:1],8-5[8:1],,,1-7[8:1],
4,1-5[8:1],6,1,8,7,6,
5-8[8:1],3-8[8:1],,,7-4[8:1],1-4[8:1],,,8-2[8:1],
5,8-4[8:1],3,8,1,2,3,
,6,{32},,2xh,3xh,,,,,8bh,7,,,,,,,{4}5/4,
1/7bh[4:3],{8},,,,2,2,
6,1>5[8:1],,1/7,,8,1,1,
7/2,6/3,{4}5/4,{8}6,B1/B2/E2,5,B3/E4/B4,
,1,2,3,{4}4-8[8:1],4,
2/6bh[4:1],{8}1,1,7,7,1,6,
4,4>1[8:1],,6,{4}6<1[8:1],{8}5,4,
3,2,{4}1,{8}2,E8/B7/B8,3,B6/E6/B5,
,8,7,6,{4}5-1b[8:1],5,
{8}3,6,6,2,2,7,1,8,
4,3,2,1,8bh[4:1],,,1,
5,1-5[8:1],5-1[8:1],1>5[4:1]*<5[4:1],,,,,,1,
8,2,6,{24}4,5,4,{8}5,3,
{4}7bh[4:1],{8}1,1,8,7,,6,
1/2,3/8,{4}4/7,{8}1/8,7/2,{4}6/3,
1/2-4[8:1],2/1-5[8:1],1/8-4[8:1],8/7-5[8:1],
7/8-4[8:1],8/1-5[8:1],1/8,7b/2b,
4h,{8}2,2,5h,5h[8:1],,1h,
8/1h,7,2-4[8:1],2,5-1[8:1],5,2,2,
8,7,1,2,6,6,3,4h[8:3],
,,,8,7/1,6/2,{4}5/3,
{8}7,7,1,1-3<4[8:1],,1/8,6,6,
4,5,3,6,2,2,7,7,
2-4[32:3],7-5[32:3],2,7,1,8,7/2,3/6,
4/5,5/4,,7/2,{4}8z4[8:1]/1s5[8:1],8b/1b`Cf,
{8}2,2,6,6,4,5,4,3,
7,1>5[8:1],,1/7,,6,3,3,
{4}7-4[8:1]/2-5[8:1],7/2,{8}6,B1/B2/E2,5,B3/E4/B4,
,5,6,7,{4}8w4[8:1],8,
{8}7,7,3,3,5,2,7,2,
8-6[32:3],5,8-4[8:1],3,8-5[8:1],3,8,4,
8,7/2,{4}6/3,{8}3,B8/B7/E8,4,B6/E6/B5,
,4,3,2,{4}1w5[8:1],1,
3/7bh[8:1],{8}1,1,8,7,6,5,
{16}2bxh[8:1]/1bxh[8:1],,,3bxh[8:1]/4bxh[8:1],,,{8}6bxh[16:1]/5bxh[16:1],8xh[16:1]/7xh[16:1],8xh[8:1]/7xh[8:1],{16},8xh[16:1]/7xh[16:1],,,{8}1-3[32:3],
4,1-5[8:1],6,1-4[8:1],6,1,5,
1,8,7,6,5,{24}4,5,4,{8}5,3,
7,7,1,1,8,8,8,1,
8/2,7/3,{4}6/4,{8}7/1,6/2,{4}5/3,
1/2-6[8:1],2/1-5[8:1],1/8-4b[8:1],8b/1b`Cf,
3,{8}6,6/5,,4,{4}4/5,
{8}6,6,2-4[8:1],2,5-1[8:1],5,2,2,
8,7,1,2,6,6,3,4h[8:3],
,,,8,7/1,6/2,{4}5/3,
{8}8,7,1,2,7,6,2,3,
4,5,3,6,2,2,7,7,
1x-5[8:1],8x-6[32:3],1x-3[32:3],8x-4[8:1],1x-6[8:1],8x-3[8:1],1x>8b[4:3],8x,
1bx,,,,,,,1b,
6/5,5/4,1b,6/5,5/4,1bh[8:1],,7,
6/5,2b,8/1,7,6/5,{16}3,4,{8}2,8b/1b,
2-5[8:1],7-4[8:1],2b,7b,1,8,1>4[8:1],7,
1b<6[8:1],5b,1-5[8:1],5,1,,,1bh[4:1]/E6h[4:1],
,,{4}8bh[8:1]/E4h[8:1],{8}1b/2b,3b/4b,5/6,8/7,
1b/2b,{16}6,5,{8}7,1-5[8:1],5V31[8:1],1,,7bh[4:1],
,8,6,1b,7/8,6,5/4,6/3,
8b-4[8:1],4V68[8:1],{4}8>4[8:1],{8},,,1b-4[8:1],
,6,{4}6,{8}1b-6[8:1],5,5,5b-8[8:1],
,,1,2bh[4:1],8,7,6,5,
{32}8/1bh[8:1],7,6,5,,,,,{8}1b,{32}7/1bh[8:1],6,5,4,,,,,{8}1b,{32}1b/6,5,4,3,,,,,{8}2,
2,8,8,1-5[8:1],7-3[8:1],1,7,
2b,2-5[8:1],7,2,8b,8-4[8:1],1,8,
1b,1,1-5[8:1],8-6[32:3],1-3[32:3],8-4[8:1],1,8,
{1}1bh[8:7],
{8}1bx-3b[32:3],1bx-5b[8:1],1bx-4[8:1],1bx-6[8:1],1bx-5b[8:1],1bx-7b[32:3],1bx,1bx,
{1}1bxh[1:2],
{4},,,,,7/8,
{8}8/7,6,5/4,4/3,
,1,8,{16}2,7,{8}7,6/3,{4}8b/1b,
{8}4/2,3,5/4,{16}6,5,{8}7,8/1,2/1,3/4,
6/5,7,5/4,{16}3,3,{8}7,8,1/2,3,
5/4,6,7/5,{16}1,8,{8}2,3,5/4,8/1,
,6,{32},2xh,{16}3xh,{32},,,,8bh,7,,,,,,,{4}1b,
{8}1-5[8:1],4,1-3[8:1],6,1,8,7,6,
5-2[8:1],5-8[8:1],,,1-6[8:1],1-4[8:1],,,8-4[8:1],
5,8-6[8:1],3,8,1,2,3,
4-7[8:1],4-1[8:1],,,8-3[8:1],8-5[8:1],,,1-7[8:1],
4,1-5[8:1],6,1,8,7,6,
5-8[8:1],3-8[8:1],,,7-4[8:1],1-4[8:1],,,8-2[8:1],
5,8-4[8:1],3,8,1,2,3,
,6,{32},,2xh,3xh,,,,,8bh,7,{64},,,,,,,,,,,,7h[1:5]/E1f,B1,E2,B2,E3,B3,E4,B4,{8}E5,
{1}2h[4:19],
E
